Loading...
Error

Скачать Друзья Эдди Койла / The Friends of Eddie Coyle (Питер Йетс / Peter Yates) [1973, триллер, драма, криминал, WEB-DLRip] [AVO] (Ю. Сербин) + [Orig] (Eng) + Sub (Rus, Eng) торрент без регистрации

 
Статистика раздачи
Размер:  1,46 GB   |    Скачан:  112 раз
Сидов:  1  [  0 KB/s  ]  
 
Автор Сообщение

leon030982

[] 

Друзья Эдди Койла / The Friends of Eddie Coyle



Год выпуска: 1973
Страна: США
Жанр: триллер, драма, криминал
Продолжительность: 01:42:02
Перевод: Авторский (одноголосый, закадровый) - [Ю. Сербин]
Субтитры: русские (спасибо Kawamura), английские - softsub (SRT)
Оригинальная аудио дорожка: английский

Режиссер: Питер Йетс / Peter Yates

В ролях: Роберт Митчум (Eddie «Fingers» Coyle), Питер Бойл (Dillon), Ричард Джордан (Dave Foley), Стивен Китс (Jackie Brown), Алекс Рокко (Jimmy Scalise), Джо Сантос (Artie Van), Митч Райан (Waters), Питер МакЛин (Mr. Partridge), Кевин О’Моррисон (Bank manager #2), Марвин Ликтермен (Vernon), Кэролин Пикман (Nancy), Джеймс Толкан (The Man's contact man)
Описание: Эдди Койл, законченный неудачник. Еще одно преступление, и он сядет в тюрьму пожизненно, без надежды на амнистию. Полиция узнает о планируемом ограблении банка в Бостоне и заставляет Койла стать их информатором. Он входит в контакт с бандой, добывает нужные сведения, но на этом полиция не оставляет его в покое. Теперь задача Эдди - помочь захватить босса банды Скализе. Однако Скализе арестовывают и без его помощи, а самого Эдди подставляют, после чего следует приказ убить бедолагу.

→ //SAMPLE//
Качество: WEB-DLRip
Формат: AVI
Видео кодек: XviD
Аудио кодек: AC3
Видео: 720x384 (1.88:1), 23.976 fps, XviD build 65 ~1646 kbps avg, 0.25 bit/pixel
Аудио RUS: 48 kHz, AC3 Dolby Digital, 2/0 (L,R) ch, ~192 kbps - AVO
Аудио ENG: 48 kHz, AC3 Dolby Digital, 2/0 (L,R) ch, ~192 kbps - Original

Код:

Материал любезно предоставлен denis_mgn_1987, инициаторы перевода: denis_mgn_1987, luka69, atomic dragonfly, jasenka, Lentyai80, motel, foxlight, Alec Storm, Roy 33, Anatoliy555, GKillah, izbk1, urassiks, Kastro.
Общее
Полное имя : F:\Video\AVI\Films\Druz'ja.Jeddi.Kojla.1973.DUAL.WEBDLRip.XviD.AC3.-AllFilms\Druz'ja.Jeddi.Kojla.1973.DUAL.WEBDLRip.XviD.AC3.-AllFilms.avi
Формат : AVI
Формат/Информация : Audio Video Interleave
Размер файла : 1,46 Гбайт
Продолжительность : 1 ч. 42 м.
Общий поток : 2045 Кбит/сек
Название фильма : Друзья Эдди Койла / The Friends of Eddie Coyle (1973)
Режиссёр : Shevon (WEBDL 720p)
Программа кодирования : VirtualDubMod 1.5.10.3 | www.virtualdub-fr.org || (build 2550/release)

Видео
Идентификатор : 0
Формат : MPEG-4 Visual
Профиль формата : Advanced Simple@L5
Параметр BVOP формата : 1
Параметр QPel формата : Нет
Параметр GMC формата : Без точки перехода
Параметр матрицы формата : Выборочная
Идентификатор кодека : XVID
Идентификатор кодека/Подсказка : XviD
Продолжительность : 1 ч. 42 м.
Битрейт : 1647 Кбит/сек
Ширина : 720 пикселей
Высота : 384 пикселя
Соотношение сторон : 1,85:1
Частота кадров : 23,976 кадра/сек
Цветовое пространство : YUV
Субдискретизация насыщенности : 4:2:0
Битовая глубина : 8 бит
Тип развёртки : Прогрессивная
Метод сжатия : С потерями
Бит/(Пиксели*Кадры) : 0.248
Размер потока : 1,17 Гбайт (81%)
Библиотека кодирования : XviD 65
Аудио #1
Идентификатор : 1
Формат : AC-3
Формат/Информация : Audio Coding 3
Расширение режима : CM (complete main)
Параметр Endianness формата : Big
Идентификатор кодека : 2000
Продолжительность : 1 ч. 42 м.
Вид битрейта : Постоянный
Битрейт : 192 Кбит/сек
Каналы : 2 канала
Расположение каналов : Front: L R
Частота : 48,0 КГц
Битовая глубина : 16 бит
Метод сжатия : С потерями
Размер потока : 140 Мбайт (9%)
Выравнивание : Разделение по промежуткам
Продолжительность промежутка : 42 мс. (1,00 видеокадр)
Время предзагрузки промежутка : 500 мс.
Аудио #2
Идентификатор : 2
Формат : AC-3
Формат/Информация : Audio Coding 3
Расширение режима : CM (complete main)
Параметр Endianness формата : Big
Идентификатор кодека : 2000
Продолжительность : 1 ч. 42 м.
Вид битрейта : Постоянный
Битрейт : 192 Кбит/сек
Каналы : 2 канала
Расположение каналов : Front: L R
Частота : 48,0 КГц
Битовая глубина : 16 бит
Метод сжатия : С потерями
Размер потока : 140 Мбайт (9%)
Выравнивание : Разделение по промежуткам
Продолжительность промежутка : 42 мс. (1,00 видеокадр)
Время предзагрузки промежутка : 500 мс.


Фильм снят по мотивам дебютного романа Джорджа В. Хиггинса «Друзья Эдди Койла» (The Friends Of Eddie Coyle, 1970).




Скачать Друзья.Эдди.Койла.The.Friends.of.Eddie.Coyle.(Питер.Йетс.Peter.Yates).[1973.триллер.драма.криминал.WEB-DLRip].[AVO].(Ю.Сербин).+.[Orig].(Eng).+.Sub.(Rus.Eng).torrent без регистрации
Золото ЗОЛОТАЯ РАЗДАЧА! СКАЧАННОЕ НЕ ЗАСЧИТЫВАЕТСЯ! Золото
Дата: Зарегистрирован   [ Тип: внутренний ] Как тут cкачать?
MAGNET ссылка
MAGNET ссылка


Скачать .torrent

30 KB

Статус: проверено DHT
Скачан: торрент - 112 раз, раздача полностью - 4 раз
Размер: 1,46 GB
Оценка:  - (Голосов: 0)
Поблагодарили: 2
Поделиться ссылкой на эту раздачу с друзьями:
В контактеFacebookОдноклассникиTwitterLivejournalМой МирLiveinternet
 

 
Показать сообщения:    


Вы не можете начинать темы
Вы не можете отвечать на сообщения
Вы не можете редактировать свои сообщения
Вы не можете удалять свои сообщения
Вы не можете голосовать в опросах
Вы не можете прикреплять файлы к сообщениям
Вы можете скачивать файлы