Loading...
Error

Скачать Прах Анджелы / Angela's Ashes (Алан Паркер) [1999, драма, DVDRip-AVC] [MVO]+[Sub] торрент без регистрации

 
Статистика раздачи
Размер:  2,58 GB   |    Скачан:  145 раз
Сидов:  1  [  0 KB/s  ]  
 
Автор Сообщение

Marsianka

[] 

Информация о фильме
Название: Прах Анджелы
Оригинальное название: Angela's Ashes
Год выхода: 1999
Жанр: драма
Режиссер: Алан Паркер
В ролях: Майкл Легг, Алан Паркер, Эмили Уотсон, Роберт Карлайл, Тим О'Брайен, Инна МакЛиэм, Сайарэн Оуэнс, Шэйн Смит, Ронни Мастерсон, Полин МакЛинн, Лайэм Карни, Эндрю Беннетт, Шэйн Мюррэй Коркорэн, Девон Мюррей, Питер Хэлпин, Эрон Герахти, Джо Брин

О фильме:
В 1935 году многочисленное семейство Маккуртов, не найдя счастья в Америке, возвращается в Ирландию, где их тоже никто не ждет. Поселившись в тесной, сырой квартирке, они пытаются выжить. Анджела, на чьих плечах все домашние хлопоты, выбивается из сил, постепенно теряя веру в мужа.

Всевышний словно забыл о них. И 6-летний Фрэнки на первом Причастии вынужден признаться, что грешен. С этой ношей он и вступает во взрослую жизнь. Он еще не знает, что очень скоро взвалит бремя забот на себя.

А пока у него есть еще немного времени на учебу, шалости и кино. И зыбкая надежда увидеть статую Свободы снова…


Страна: США, Ирландия
Студия: David Brown Productions, Dirty Hands Productions, Scott Rudin Productions
Продолжительность: 02:19:57.640
Перевод: Профессиональный (многоголосый, закадровый) R5

Файл
Кодек: h.264
Качество: DVDRip-AVC
Видео: 704x576 (16:9) @ 1010x576 (анаморф), 25.000 fps, AVC, ~1870 Kbps, 0.184 bits/pixel
Русский, 48.0 KHz, AC3, 6 ch, 384 Kbps
Английский, 48.0 KHz, AC3, 6 ch, 384 Kbps
Субтитры: Русские, VobSub
Исходник R5 DVD9
Общее
Уникальный идентификатор : 184976870131904285976791149309427919089 (0x8B293FD379AA6FB78014F652B61F28F1)
Полное имя : D:FilmsPrakh_Anzheli.1999.DVDRip-AVC.mkv
Формат : Matroska
Версия формата : Version 4 / Version 2
Размер файла : 2,58 Гбайт
Продолжительность : 2 ч. 19 м.
Общий поток : 2642 Кбит/сек
Дата кодирования : UTC 2014-01-20 19:39:51
Программа кодирования : mkvmerge v6.7.0 ('Back to the Ground') 64bit built on Jan 8 2014 15:10:52
Библиотека кодирования : libebml v1.3.0 + libmatroska v1.4.1

Видео
Идентификатор : 1
Формат : AVC
Формат/Информация : Advanced Video Codec
Профиль формата : High@L4.1
Параметр CABAC формата : Да
Параметр ReFrames формата : 16 кадров
Идентификатор кодека : V_MPEG4/ISO/AVC
Продолжительность : 2 ч. 19 м.
Битрейт : 1870 Кбит/сек
Ширина : 704 пикселя
Высота : 576 пикселей
Соотношение сторон : 16:9
Соотношение сторон в оригинале : 16:9
Режим частоты кадров : Постоянный
Частота кадров : 25,000 кадров/сек
Стандарт вещания : PAL
Цветовое пространство : YUV
Субдискретизация насыщенности : 4:2:0
Битовая глубина : 8 бит
Тип развёртки : Прогрессивная
Бит/(Пиксели*Кадры) : 0.184
Размер потока : 1,78 Гбайт (69%)
Библиотека кодирования : x264 core 138 r2358 9e941d1
Настройки программы : cabac=1 / ref=16 / deblock=1:0:0 / analyse=0x3:0x133 / me=umh / subme=10 / psy=1 / psy_rd=1.05:0.10 / mixed_ref=1 / me_range=32 / chroma_me=1 / trellis=2 / 8x8dct=1 / cqm=0 / deadzone=21,11 / fast_pskip=0 / chroma_qp_offset=-3 / threads=8 / lookahead_threads=1 / sliced_threads=0 / nr=0 / decimate=0 / interlaced=0 / bluray_compat=0 / constrained_intra=0 / bframes=9 / b_pyramid=2 / b_adapt=2 / b_bias=0 / direct=3 / weightb=1 / open_gop=0 / weightp=2 / keyint=250 / keyint_min=25 / scenecut=40 / intra_refresh=0 / rc_lookahead=60 / rc=2pass / mbtree=0 / bitrate=1870 / ratetol=1.0 / qcomp=0.60 / qpmin=0 / qpmax=60 / qpstep=4 / cplxblur=20.0 / qblur=0.5 / vbv_maxrate=50000 / vbv_bufsize=62500 / nal_hrd=none / ip_ratio=1.40 / pb_ratio=1.30 / aq=1:1.00
Default : Нет
Forced : Нет
Коэффициенты матрицы : BT.601

Аудио #1
Идентификатор : 2
Формат : AC-3
Формат/Информация : Audio Coding 3
Расширение режима : CM (complete main)
Параметр Endianness формата : Big
Идентификатор кодека : A_AC3
Продолжительность : 2 ч. 19 м.
Вид битрейта : Постоянный
Битрейт : 384 Кбит/сек
Каналы : 6 каналов
Расположение каналов : Front: L C R, Side: L R, LFE
Частота : 48,0 КГц
Битовая глубина : 16 бит
Метод сжатия : С потерями
Размер потока : 384 Мбайт (15%)
Язык : Russian
Default : Да
Forced : Нет

Аудио #2
Идентификатор : 3
Формат : AC-3
Формат/Информация : Audio Coding 3
Расширение режима : CM (complete main)
Параметр Endianness формата : Big
Идентификатор кодека : A_AC3
Продолжительность : 2 ч. 19 м.
Вид битрейта : Постоянный
Битрейт : 384 Кбит/сек
Каналы : 6 каналов
Расположение каналов : Front: L C R, Side: L R, LFE
Частота : 48,0 КГц
Битовая глубина : 16 бит
Метод сжатия : С потерями
Размер потока : 384 Мбайт (15%)
Язык : English
Default : Нет
Forced : Нет

Текст
Идентификатор : 4
Формат : VobSub
Режим смешивания : zlib
Идентификатор кодека : S_VOBSUB
Идентификатор кодека/Информация : The same subtitle format used on DVDs
Язык : Russian
Default : Нет
Forced : Нет

Меню
00:00:00.000 : en:Chapter 01
00:06:38.840 : en:Chapter 02
00:20:38.640 : en:Chapter 03
00:28:02.200 : en:Chapter 04
00:39:26.520 : en:Chapter 05
00:48:52.280 : en:Chapter 06
01:01:17.440 : en:Chapter 07
01:08:15.520 : en:Chapter 08
01:16:46.160 : en:Chapter 09
01:23:35.920 : en:Chapter 10
01:30:34.520 : en:Chapter 11
01:37:34.160 : en:Chapter 12
01:43:16.840 : en:Chapter 13
01:49:18.760 : en:Chapter 14
01:56:12.160 : en:Chapter 15
01:58:10.200 : en:Chapter 16
02:10:37.440 : en:Chapter 17
02:14:29.880 : en:Chapter 18
frame I:2043 Avg QP:14.66 size: 58592
frame P:54029 Avg QP:17.69 size: 20039
frame B:153869 Avg QP:19.91 size: 4940



Скачать Прах.Анджелы.Angela's.Ashes.(Алан.Паркер).[1999.драма.DVDRip-AVC].[MVO]+[Sub].torrent без регистрации
Золото ЗОЛОТАЯ РАЗДАЧА! СКАЧАННОЕ НЕ ЗАСЧИТЫВАЕТСЯ! Золото
Дата: Зарегистрирован   [ Тип: внутренний ] Как тут cкачать?
MAGNET ссылка
MAGNET ссылка


Скачать .torrent

14 KB

Статус: проверено DHT
Скачан: торрент - 145 раз, раздача полностью - 0 раз
Размер: 2,58 GB
Оценка:  - (Голосов: 0)
Поблагодарили: 1
Поделиться ссылкой на эту раздачу с друзьями:
В контактеFacebookОдноклассникиTwitterLivejournalМой МирLiveinternet
 

 
Показать сообщения:    


Вы не можете начинать темы
Вы не можете отвечать на сообщения
Вы не можете редактировать свои сообщения
Вы не можете удалять свои сообщения
Вы не можете голосовать в опросах
Вы не можете прикреплять файлы к сообщениям
Вы можете скачивать файлы