Loading...
Error

Скачать Прах Анджелы / Angela's Ashes (Алан Паркер) [1999, драма, DVDRip] [MVO] торрент без регистрации

 
Статистика раздачи
Размер:  2,19 GB   |    Скачан:  157 раз
Сидов:  1  [  0 KB/s  ]  
 
Автор Сообщение

Marsianka

[] 

Информация о фильме
Название: Прах Анджелы
Оригинальное название: Angela's Ashes
Год выхода: 1999
Жанр: драма
Режиссер: Алан Паркер
Композитор: Джон Уильямс
В ролях: Майкл Легг, Алан Паркер, Эмили Уотсон, Роберт Карлайл, Тим О'Брайен, Инна МакЛиэм, Сайарэн Оуэнс, Шэйн Смит, Ронни Мастерсон, Полин МакЛинн, Лайэм Карни, Эндрю Беннетт, Шэйн Мюррэй Коркорэн, Девон Мюррей, Питер Хэлпин, Эрон Герахти, Джо Брин

О фильме:
В 1935 году многочисленное семейство Маккуртов, не найдя счастья в Америке, возвращается в Ирландию, где их тоже никто не ждет. Поселившись в тесной, сырой квартирке, они пытаются выжить. Анджела, на чьих плечах все домашние хлопоты, выбивается из сил, постепенно теряя веру в мужа.

Всевышний словно забыл о них. И 6-летний Фрэнки на первом Причастии вынужден признаться, что грешен. С этой ношей он и вступает во взрослую жизнь. Он еще не знает, что очень скоро взвалит бремя забот на себя.

А пока у него есть еще немного времени на учебу, шалости и кино. И зыбкая надежда увидеть статую Свободы снова…
Фильм поставлен по одноименному автобиографическому роману Фрэнка МакКурта, удостоенному Пулитцеровской премии. Говорят, что каждый человек может написать одну хорошую книгу - о самом себе. Так вот, наверное, из-за того, что книга получилась очень хорошей, такой мастер как Алан Паркер взялся за ее экранизацию и, видно, вложил в работу всю душу. В самом начале приводятся слова: "Нет ничего хуже детства ирландца-католика". Бруклин, 1935 год. В семье эмигрантов МакКуртов родилась девочка после четырех мальчиков. Назвали Маргарет, но прожила она всего несколько дней. Ее братья, старший Фрэнсис, Оливер, Юджин, Маллохи, их отец Маллохи МакКурт (Карлайл) и мать Анджела (Уотсон) живут в жуткой нищете. Соседка миссис Лейбовиц жила этажом выше и изредка выручала детей тарелкой супа. Тетушки собрали деньги и отправили всех обратно в Ирландию, где не было работы, а люди умирали от голода и нищеты. Мальчику Фрэнку, от лица которого ведется рассказ, было тогда шесть лет. Иногда зритель слышит его закадровый голос, рассказывающий, как прошло его детство до 16 лет, когда ему удалось накопить денег, чтобы уехать в Америку. Тема его взросления является основной темой картины. Нет смысла пересказывать ее содержание - тогда бы аннотация заняла целый том. Католики, как сказано в фильме "Смысл жизни" рожают детей каждый раз, как занимаются любовью. Так было и в семье маленького Фрэнка. Родственники вечно ворчали, что Анджела нарожала детей, как крольчиха, а сама даже полы вымыть не может. Дети появлялись на свет часто, но также часто и умирали в грязных, вечно сырых каморках городка Лимерик, где, кажется, никогда не кончался дождь. Отец постоянно искал работу, пил, его выгоняли, он бездельничал, делал детей, находил работу и снова пил. Даже пособие на рождение очередного ребенка он спустил в пабе, но Фрэнк все равно всегда вспоминал отца с любовью, хотя тот и ушел из семьи, уехав в Лондон. Он не был злым человеком. Не подумайте, что это какая-то скучная чернуха, снятая с классовых позиций. В фильме есть множество смешных и трогательных моментов, как это и бывает в любой жизни. Смотреть Вы его будете на одном дыхании - не оторваться, хотя продолжительность более двух часов. Мне даже было жалко, когда картина закончилась. Весь актерский ансамбль, включая детей, играет бесподобно. (Иванов М.)
Оскар, 2000 год
Номинации:
Лучший оригинальный саундтрек

Золотой глобус, 2000 год
Номинации:
Лучший саундтрек

Британская академия, 2000 год
Номинации:
Лучшая женская роль (Эмили Уотсон)
Лучшая работа оператора
Лучшая работа художника-постановщика


Бюджет: $50 000 000

Страна: США, Ирландия
Студия: David Brown Productions
Продолжительность: 02:20:52
Перевод: Профессиональный (многоголосый, закадровый)

Файл
Формат: AVI
Качество: DVDRip
Видео: 720x416 (1.73:1), 25 fps, XviD 1691 kbps, 0.226 bit/pixel
Аудио 1: 48 kHz, AC3, 6 channels, 384 kbps - Russian
Аудио 2: 48 kHz, MP3, 2 channels, 128 kbps - English
General
Complete name : D:TorrentsCompletePrah.Andzhely.1999.Xvid.AC3.DVDRip.avi
Format : AVI
Format/Info : Audio Video Interleave
Format profile : OpenDML
File size : 2.19 GiB
Duration : 2h 20mn
Overall bit rate : 2 221 Kbps
Writing application : VirtualDubMod 1.5.10.2 (build 2542/release)
Comment : Prah.Andzhely.RUS.ENG.DVDRip.avi

Video
ID : 0
Format : MPEG-4 Visual
Format profile : Advanced Simple@L5
Format settings, BVOP : Yes
Format settings, QPel : No
Format settings, GMC : No warppoints
Format settings, Matrix : Custom
Codec ID : XVID
Codec ID/Hint : XviD
Duration : 2h 20mn
Bit rate : 1 691 Kbps
Width : 720 pixels
Height : 416 pixels
Display aspect ratio : 16:9
Frame rate : 25.000 fps
Color space : YUV
Chroma subsampling : 4:2:0
Bit depth : 8 bits
Scan type : Progressive
Bits/(Pixel*Frame) : 0.226
Stream size : 1.66 GiB (76%)
Writing library : XviD 1.1.2 (UTC 2006-11-01)

Audio #1
ID : 1
Format : AC-3
Format/Info : Audio Coding 3
Mode extension : CM (complete main)
Codec ID : 2000
Duration : 2h 20mn
Bit rate mode : Constant
Bit rate : 384 Kbps
Channel(s) : 6 channels
Channel positions : Front: L C R, Side: L R, LFE
Sampling rate : 48.0 KHz
Bit depth : 16 bits
Stream size : 387 MiB (17%)
Alignment : Split accross interleaves
Interleave, duration : 40 ms (1.00 video frame)
Interleave, preload duration : 500 ms

Audio #2
ID : 2
Format : MPEG Audio
Format version : Version 1
Format profile : Layer 3
Mode : Joint stereo
Mode extension : MS Stereo
Codec ID : 55
Codec ID/Hint : MP3
Duration : 2h 20mn
Bit rate mode : Constant
Bit rate : 128 Kbps
Channel(s) : 2 channels
Sampling rate : 48.0 KHz
Stream size : 129 MiB (6%)
Alignment : Aligned on interleaves
Interleave, duration : 40 ms (1.00 video frame)
Interleave, preload duration : 504 ms
Writing library : LAME3.97
Encoding settings : -m j -V 4 -q 2 -lowpass 17 -b 128



Скачать Прах.Анджелы.Angela's.Ashes.(Алан.Паркер).[1999.драма.DVDRip].[MVO].torrent без регистрации
Золото ЗОЛОТАЯ РАЗДАЧА! СКАЧАННОЕ НЕ ЗАСЧИТЫВАЕТСЯ! Золото
Дата: Зарегистрирован   [ Тип: внутренний ] Как тут cкачать?
MAGNET ссылка
MAGNET ссылка


Скачать .torrent

11 KB

Статус: проверено DHT
Скачан: торрент - 157 раз, раздача полностью - 4 раз
Размер: 2,19 GB
Оценка:  - (Голосов: 0)
Поблагодарили: 0
Поделиться ссылкой на эту раздачу с друзьями:
В контактеFacebookОдноклассникиTwitterLivejournalМой МирLiveinternet
 

 
Показать сообщения:    


Вы не можете начинать темы
Вы не можете отвечать на сообщения
Вы не можете редактировать свои сообщения
Вы не можете удалять свои сообщения
Вы не можете голосовать в опросах
Вы не можете прикреплять файлы к сообщениям
Вы можете скачивать файлы