Loading...
Error

/ King Kong ( ) [2005, , , , , , BDRip] [Dub] [ ]

 
1,46 GB   |    :  5179
1  [  0 KB/s  ]  
 

[] 

/ King Kong


: 2005
: , , / Universal Pictures
: , , , ,
: 03:20:07
: ( )
+
:
]: / Peter Jackson

: (Ann Darrow), (Jack Driscoll), (Carl Denham), (Captain Englehorn), (Kong / Lumpy), (Preston), (Jimmy), (Bruce Baxter), (Hayes), (Choy)

: 1930- - , . , .
, , , . ,

| | |

: BDRip [BDRemux]
: AVI
: 688x288 (2.39:1), 23.976 fps, XviD build 73 ~908 kbps avg, 0.19 bit/pixel
: 48 kHz, MPEG Layer 3, 2 ch, ~128.00 kbps avg

:

General
Complete name : D:\King_Kong_2005_BDRip_by_Dalemake.avi
Format : AVI
Format/Info : Audio Video Interleave
File size : 1.46 GiB
Duration : 3h 20mn
Overall bit rate : 1 046 Kbps
Writing application : VirtualDubMod 1.5.10.3 | www.virtualdub-fr.org || (build 2550/release)
Writing library : VirtualDubMod build 2550/release
Video
ID : 0
Format : MPEG-4 Visual
Format profile : Advanced Simple@L5
Format settings, BVOP : 1
Format settings, QPel : No
Format settings, GMC : No warppoints
Format settings, Matrix : Custom
Codec ID : XVID
Codec ID/Hint : XviD
Duration : 3h 20mn
Bit rate : 909 Kbps
Width : 688 pixels
Height : 288 pixels
Display aspect ratio : 2.40:1
Frame rate : 23.976 fps
Color space : YUV
Chroma subsampling : 4:2:0
Bit depth : 8 bits
Scan type : Progressive
Compression mode : Lossy
Bits/(Pixel*Frame) : 0.191
Stream size : 1.27 GiB (87%)
Writing library : XviD 73
Audio
ID : 1
Format : MPEG Audio
Format version : Version 1
Format profile : Layer 3
Codec ID : 55
Codec ID/Hint : MP3
Duration : 3h 20mn
Bit rate mode : Constant
Bit rate : 128 Kbps
Channel(s) : 2 channels
Sampling rate : 48.0 KHz
Compression mode : Lossy
Stream size : 183 MiB (12%)
Alignment : Aligned on interleaves
Interleave, duration : 42 ms (1.00 video frame)
Interleave, preload duration : 504 ms
Writing library : LAME3.99r
Encoding settings : -m s -V 4 -q 2 -lowpass 17 -b 128

http://screenshotcomparison.com/comparison/96591 ():"]Muxing mode : Packed bitstream



..King.Kong.(.).[2005......BDRip].[Dub].[.].torrent
  ! ! 
:   [ : ] c?
MAGNET
MAGNET


.torrent

15 KB

: DHT
: - 5179 , - 17
: 1,46 GB
5 (: 2)
: 2
:
 FacebookTwitterLivejournal Liveinternet
 

 
: