Loading...
Error

/ King Kong ( ) [2005, , , , , , BDRip] [Dub] [ ]

 
2,18 GB   |    :  5210
1  [  0 KB/s  ]  
 

[] 

/ King Kong


: 2005
: , , / Universal Pictures
: , , , ,
: 03:20:07
: ( )
+
:
: / Peter Jackson

: (Ann Darrow), (Jack Driscoll), (Carl Denham), (Captain Englehorn), (Kong / Lumpy), (Preston), (Jimmy), (Bruce Baxter), (Hayes), (Choy)

: 1930- - , . , .
, , , . ,

| |

: BDRip [BDRemux]
: AVI
: 720x304 (2.37:1), 23.976 fps, XviD build 73 ~1363 kbps avg, 0.26 bit/pixel
: 48 kHz, AC3 Dolby Digital, 2/0 (L,R) ch, ~192.00 kbps avg

:

General
Complete name : D:\King_Kong_2005_BDRip_[2.18]_by_Dalemake.avi
Format : AVI
Format/Info : Audio Video Interleave
Format profile : OpenDML
File size : 2.18 GiB
Duration : 3h 20mn
Overall bit rate : 1 563 Kbps
Writing application : VirtualDubMod 1.5.10.3 | www.virtualdub-fr.org || (build 2550/release)
Writing library : VirtualDubMod build 2550/release
Video
ID : 0
Format : MPEG-4 Visual
Format profile : Advanced Simple@L5
Format settings, BVOP : 1
Format settings, QPel : No
Format settings, GMC : No warppoints
Format settings, Matrix : Custom
Codec ID : XVID
Codec ID/Hint : XviD
Duration : 3h 20mn
Bit rate : 1 359 Kbps
Width : 720 pixels
Height : 304 pixels
Display aspect ratio : 2.35:1
Frame rate : 23.976 fps
Color space : YUV
Chroma subsampling : 4:2:0
Bit depth : 8 bits
Scan type : Progressive
Compression mode : Lossy
Bits/(Pixel*Frame) : 0.259
Stream size : 1.90 GiB (87%)
Writing library : XviD 73
Audio
ID : 1
Format : AC-3
Format/Info : Audio Coding 3
Mode extension : CM (complete main)
Format settings, Endianness : Big
Codec ID : 2000
Duration : 3h 20mn
Bit rate mode : Constant
Bit rate : 192 Kbps
Channel(s) : 2 channels
Channel positions : Front: L R
Sampling rate : 48.0 KHz
Bit depth : 16 bits
Compression mode : Lossy
Stream size : 275 MiB (12%)
Alignment : Split accross interleaves
Interleave, duration : 42 ms (1.00 video frame)
Interleave, preload duration : 500 ms

http://screenshotcomparison.com/comparison/96674 ():"]: 720x304 (2.37:1), 23.976 fps, XviD build 47 ~1214 kbps avg, 0.23 bit/pixel
Video: 720x304 (2.37:1), 23.976 fps, XviD build 47 ~1174 kbps avg, 0.22 bit/pixel



..King.Kong.(.).[2005......BDRip].[Dub].[.].torrent
  ! ! 
:   [ : ] c?
MAGNET
MAGNET


.torrent

11 KB

: DHT
: - 5210 , - 50
: 2,18 GB
- (: 0)
: 0
:
 FacebookTwitterLivejournal Liveinternet
 

 
: