Loading...
Error

Скачать Наша история / Notre histoire (Бертран Блие) [1984, комедия, драма, DVDRip] [DVO] торрент без регистрации

 
Статистика раздачи
Размер:  1,46 GB   |    Скачан:  97 раз
Сидов:  1  [  0 KB/s  ]  
 
Автор Сообщение

Marsianka

[] 

Наша история / Notre histoire
Год выпуска: 1984
Страна: Франция
Жанр: комедия, драма
Продолжительность: 01:46:53
Перевод: Профессиональный (двухголосый, закадровый)
Cубтитры: нет

Режиссер: Бертран Блие / Bertrand Blier

В ролях: Ален Делон, Натали Бэй, Жерар Дармон, Женевьев Фонтанель, Жан-Пьер Дарруссен, Сабин Одпен, Жан-Франсуа Стевенен, Жинетт Гарсен, Мишель Галабрю, Филипп Лоденбаш

Описание:
Роберт Авранш, разрывается между любовью к выпивке и женщине, с которой познакомился в поезде. Режиссёр затрагивает свою излюбленную тему — сексуальная неудовлетворенность женщины, а некоторые сцены кажутся заимствованными из его же предыдущих фильмов..



Качество: DVDRip [Исходник DVD5]
Формат: AVI
Видео кодек: XviD
Аудио кодек: AC3
Видео: 704x416 (1.69:1), 25 fps, XviD build 73 ~1789 kbps avg, 0.24 bit/pixel
Аудио: 48 kHz, AC3 Dolby Digital, 2/0 (L,R) ch, ~160 kbps
Раздача от:
D:Мои рипыNotre.histoire.1984.dvdrip.dexter_lex.avi
General
Complete name : D:Мои рипыNotre.histoire.1984.dvdrip.dexter_lex.avi
Format : AVI
Format/Info : Audio Video Interleave
File size : 1.46 GiB
Duration : 1h 46mn
Overall bit rate : 1 960 Kbps
Writing application : VirtualDubMod 1.5.10.3 | www.virtualdub-fr.org || (build 2550/release)
Writing library : VirtualDubMod build 2550/release
Video #0
ID : 0
Format : MPEG-4 Visual
Format profile : Advanced Simple@L5
Format settings, BVOP : 1
Format settings, QPel : No
Format settings, GMC : No warppoints
Format settings, Matrix : Custom
Codec ID : XVID
Codec ID/Hint : XviD
Duration : 1h 46mn
Bit rate : 1 790 Kbps
Width : 704 pixels
Height : 416 pixels
Display aspect ratio : 1.692
Frame rate : 25.000 fps
Color space : YUV
Chroma subsampling : 4:2:0
Bit depth : 8 bits
Scan type : Progressive
Compression mode : Lossy
Bits/(Pixel*Frame) : 0.244
Stream size : 1.34 GiB (91%)
Writing library : XviD 73
Audio #1
ID : 1
Format : AC-3
Format/Info : Audio Coding 3
Mode extension : CM (complete main)
Codec ID : 2000
Duration : 1h 46mn
Bit rate mode : Constant
Bit rate : 160 Kbps
Channel(s) : 2 channels
Channel positions : Front: L R
Sampling rate : 48.0 KHz
Bit depth : 16 bits
Compression mode : Lossy
Stream size : 122 MiB (8%)
Alignment : Split accross interleaves
Interleave, duration : 40 ms (1.00 video frame)
Interleave, preload duration : 500 ms



Скачать Наша.история.Notre.histoire.(Бертран.Блие).[1984.комедия.драма.DVDRip].[DVO].torrent без регистрации
Золото ЗОЛОТАЯ РАЗДАЧА! СКАЧАННОЕ НЕ ЗАСЧИТЫВАЕТСЯ! Золото
Дата: Зарегистрирован   [ Тип: внутренний ] Как тут cкачать?
MAGNET ссылка
MAGNET ссылка


Скачать .torrent

15 KB

Статус: проверено DHT
Скачан: торрент - 97 раз, раздача полностью - 2 раз
Размер: 1,46 GB
Оценка:  - (Голосов: 0)
Поблагодарили: 1
Поделиться ссылкой на эту раздачу с друзьями:
В контактеFacebookОдноклассникиTwitterLivejournalМой МирLiveinternet
 

 
Показать сообщения:    


Вы не можете начинать темы
Вы не можете отвечать на сообщения
Вы не можете редактировать свои сообщения
Вы не можете удалять свои сообщения
Вы не можете голосовать в опросах
Вы не можете прикреплять файлы к сообщениям
Вы можете скачивать файлы