Loading...
Error

Скачать Сирены / Sirens (Джон Дайган) [1993, комедия, драма, BDRip] [MVO]x2+[AVO]x2+[Оригинал]+[Sub] торрент без регистрации

 
Статистика раздачи
Размер:  1,98 GB   |    Скачан:  118 раз
Сидов:  1  [  0 KB/s  ]  
 
Автор Сообщение

Marsianka

[] 

Название: Сирены
Оригинальное название: Sirens
Год выпуска: 1993
Жанр: комедия, драма
Выпущено: Австралия, Великобритания, WMG and British Screen
Режиссер: Джон Дайган
В ролях: Хью Грант, Тара Фитцджеральд, Сэм Нилл, Эль Макферсон, Портия Де Росси, Кейт Фишер, Памела Рэйб, Бен Мендельсон, Джон Полсон, Марк Гербер

О фильме: Сирены — Шила, Джудди и Пру — три ошеломляющей красоты натурщицы, позирующие для художника-авангардиста в его удалённой гавани. Когда юный священник и его жена прибывают к художнику с целью наставить его на путь истинный и убедить не выставлять «развратные» картины на выставку, они попадают в рассадник искушения, и сами запутываются в сексуально-страстной атмосфере греха, шокирующей и соблазняющей их. Откровенные фантазии и провоцирующие сцены добавляют немало поворотов в эту приятно-возбуждающую романтическую комедию-мелодраму, которая снискала популярность как у зрителей, так и у критиков.



Качество: BDRip
Размер: 1.98 ГБ
Продолжительность: 01:30:13

Видео: XviD, 1904 Kбит/с, 720х384, 25,000 кадров/сек
Аудио 1: русский, 48 kHz, AC3, 2 ch, 224 kbps avg, [Профессиональный многоголосый, DVD Магия]
Аудио 2: русский, 48 kHz, AC3, 2 ch, 192 kbps avg, [Профессиональный многоголосый, студия Велес]
Аудио 3: русский, 48 kHz, AC3, 2 ch, 192 kbps avg, [Авторский, Василий Горчаков]
Аудио 4: русский, 48 kHz, AC3, 2 ch, 192 kbps avg, [Авторский, Алексей Михалёв]

Внешние файлы
Аудио: английский, 48 kHz, AC3, 2 ch, 192 kbps avg, [Оригинал]
Аудио: английский, 48 kHz, AC3, 2 ch, 224 kbps avg, [комментарий режиссёра]
Субтитры: русские
Исходник -- Ванчело (Кинозал)
Общее
Полное имя : D:VideoSireny.1993.BDRipSireny.1993.BDRip.avi
Формат : AVI
Формат/Информация : Audio Video Interleave
Размер файла : 1,72 Гбайт
Продолжительность : 1 ч. 30 м.
Общий поток : 2727 Кбит/сек
Программа кодирования : VirtualDubMod 1.5.10.2 (build 2540/release)
Библиотека кодирования : VirtualDubMod build 2540/release

Видео
Идентификатор : 0
Формат : MPEG-4 Visual
Профиль формата : Advanced Simple@L5
Параметр BVOP формата : 1
Параметр QPel формата : Нет
Параметр GMC формата : Без точки перехода
Параметр матрицы формата : Default (H.263)
Режим смешивания : Сжатый битовый поток
Идентификатор кодека : XVID
Идентификатор кодека/Подсказка : XviD
Продолжительность : 1 ч. 30 м.
Битрейт : 1904 Кбит/сек
Ширина : 720 пикселей
Высота : 384 пикселя
Соотношение сторон : 1,85:1
Частота кадров : 25,000 кадров/сек
Цветовое пространство : YUV
Субдискретизация насыщенности : 4:2:0
Битовая глубина : 8 бит
Тип развёртки : Прогрессивная
Метод сжатия : С потерями
Бит/(Пиксели*Кадры) : 0.275
Размер потока : 1,20 Гбайт (70%)
Библиотека кодирования : XviD 1.2.1 (UTC 2008-12-04)

Аудио #1
Идентификатор : 1
Формат : AC-3
Формат/Информация : Audio Coding 3
Расширение режима : CM (complete main)
Параметр Endianness формата : Big
Идентификатор кодека : 2000
Продолжительность : 1 ч. 30 м.
Вид битрейта : Постоянный
Битрейт : 224 Кбит/сек
Каналы : 2 канала
Расположение каналов : Front: L R
Частота : 48,0 КГц
Битовая глубина : 16 бит
Метод сжатия : С потерями
Размер потока : 144 Мбайт (8%)
Выравнивание : Разделение по промежуткам
Продолжительность промежутка : 40 мс. (1,00 видеокадр)
Время предзагрузки промежутка : 500 мс.

Аудио #2
Идентификатор : 2
Формат : AC-3
Формат/Информация : Audio Coding 3
Расширение режима : CM (complete main)
Параметр Endianness формата : Big
Идентификатор кодека : 2000
Продолжительность : 1 ч. 30 м.
Вид битрейта : Постоянный
Битрейт : 192 Кбит/сек
Каналы : 2 канала
Расположение каналов : Front: L R
Частота : 48,0 КГц
Битовая глубина : 16 бит
Метод сжатия : С потерями
Размер потока : 124 Мбайт (7%)
Выравнивание : Разделение по промежуткам
Продолжительность промежутка : 40 мс. (1,00 видеокадр)
Время предзагрузки промежутка : 500 мс.

Аудио #3
Идентификатор : 3
Формат : AC-3
Формат/Информация : Audio Coding 3
Расширение режима : CM (complete main)
Параметр Endianness формата : Big
Идентификатор кодека : 2000
Продолжительность : 1 ч. 30 м.
Вид битрейта : Постоянный
Битрейт : 192 Кбит/сек
Каналы : 2 канала
Расположение каналов : Front: L R
Частота : 48,0 КГц
Битовая глубина : 16 бит
Метод сжатия : С потерями
Размер потока : 124 Мбайт (7%)
Выравнивание : Разделение по промежуткам
Продолжительность промежутка : 40 мс. (1,00 видеокадр)
Время предзагрузки промежутка : 500 мс.

Аудио #4
Идентификатор : 4
Формат : AC-3
Формат/Информация : Audio Coding 3
Расширение режима : CM (complete main)
Параметр Endianness формата : Big
Идентификатор кодека : 2000
Продолжительность : 1 ч. 30 м.
Вид битрейта : Постоянный
Битрейт : 192 Кбит/сек
Каналы : 2 канала
Расположение каналов : Front: L R
Частота : 48,0 КГц
Битовая глубина : 16 бит
Метод сжатия : С потерями
Размер потока : 124 Мбайт (7%)
Выравнивание : Разделение по промежуткам
Продолжительность промежутка : 40 мс. (1,00 видеокадр)
Время предзагрузки промежутка : 500 мс.

Общее
Полное имя : D:VideoSireny.1993.BDRipSireny.1993.CommDir.eng.ac3
Формат : AC-3
Формат/Информация : Audio Coding 3
Размер файла : 145 Мбайт
Продолжительность : 1 ч. 30 м.
Режим общего битрейта : Постоянный
Общий поток : 224 Кбит/сек

Аудио
Формат : AC-3
Формат/Информация : Audio Coding 3
Расширение режима : CM (complete main)
Параметр Endianness формата : Big
Продолжительность : 1 ч. 30 м.
Вид битрейта : Постоянный
Битрейт : 224 Кбит/сек
Каналы : 2 канала
Расположение каналов : Front: L R
Частота : 48,0 КГц
Битовая глубина : 16 бит
Метод сжатия : С потерями
Размер потока : 145 Мбайт (100%)

Общее
Полное имя : D:VideoSireny.1993.BDRipSireny.1993.Original.eng.ac3
Формат : AC-3
Формат/Информация : Audio Coding 3
Размер файла : 124 Мбайт
Продолжительность : 1 ч. 30 м.
Режим общего битрейта : Постоянный
Общий поток : 192 Кбит/сек

Аудио
Формат : AC-3
Формат/Информация : Audio Coding 3
Расширение режима : CM (complete main)
Параметр Endianness формата : Big
Продолжительность : 1 ч. 30 м.
Вид битрейта : Постоянный
Битрейт : 192 Кбит/сек
Каналы : 2 канала
Расположение каналов : Front: L R
Частота : 48,0 КГц
Битовая глубина : 16 бит
Метод сжатия : С потерями
Размер потока : 124 Мбайт (100%)

Общее
Полное имя : D:VideoSireny.1993.BDRipSireny.1993.rus.srt
Размер файла : 141 Кбайт



Скачать Сирены.Sirens.(Джон.Дайган).[1993.комедия.драма.BDRip].[MVO]x2+[AVO]x2+[Оригинал]+[Sub].torrent без регистрации
Золото ЗОЛОТАЯ РАЗДАЧА! СКАЧАННОЕ НЕ ЗАСЧИТЫВАЕТСЯ! Золото
Дата: Зарегистрирован   [ Тип: внутренний ] Как тут cкачать?
MAGNET ссылка
MAGNET ссылка


Скачать .torrent

21 KB

Статус: проверено DHT
Скачан: торрент - 118 раз, раздача полностью - 1 раз
Размер: 1,98 GB
Оценка:  - (Голосов: 0)
Поблагодарили: 1
Поделиться ссылкой на эту раздачу с друзьями:
В контактеFacebookОдноклассникиTwitterLivejournalМой МирLiveinternet
 

 
Показать сообщения:    


Вы не можете начинать темы
Вы не можете отвечать на сообщения
Вы не можете редактировать свои сообщения
Вы не можете удалять свои сообщения
Вы не можете голосовать в опросах
Вы не можете прикреплять файлы к сообщениям
Вы можете скачивать файлы