Loading...
Error

Скачать Маска / The Mask (Чарлз Расселл / Charles Russell) [1994, комедия, детектив, фэнтези, BDRip-AVC] [AVO] (П.Санаев) + [Sub] (Rus, Eng) торрент без регистрации

 
Статистика раздачи
Размер:  1,55 GB   |    Скачан:  153 раза
Сидов:  1  [  0 KB/s  ]  
 
Автор Сообщение

leon030982

[] 

Маска / The Mask


Год выпуска: 1994
Страна: США
Жанр: комедия, детектив, фэнтези
Продолжительность: 01:41:12
Перевод: Авторский (одноголосный, закадровый) [П.Санаев]
Cубтитры: русские, английские

Режиссер: Чарлз Расселл / Charles Russell

В ролях: Джим Керри, Питер Ригерт, Питер Грин, Эми Ясбек, Кэмерон Диаз, Орестес Матасена, Тим Бэгли, Нэнси Фиш, Джонни Уильямс, Рег Э. Кэти и другие

Описание: Скромный, застенчивый служащий банка закомплексован настолько, что чувствует себя неуверенно с красивыми девушками. Волею судьбы к нему попадает волшебная маска, и Стенли Ипкис приобретает способность превращаться в неуязвимое мультяшное существо из забавных комиксов.
Он становится супергероем, готовым бороться с преступностью, как Бэтмен. Итак, днем он по-прежнему скромный и незадачливый служащий, а по ночам — супермен…




Качество: BDRip-AVC [исх. BDRemux 1080p]
Формат: MKV
Видео кодек: H.264
Аудио кодек: AC3
Видео: V_MPEG4/ISO/AVC, 864x486 (16:9), 23.976 fps, H264 ~ 1903 Kbps, 0.189 bit/pixel
Аудио: 48.0 KHz, AC3 6Ch, ~384 kbps

Цитата:

Видеоряд от dexter lex

Код:

General
Unique ID                        : 180584427213311527094436767016588115423 (0x87DB4BAB8664AB5FA8C188BABA6F7DDF)
Complete name                    : E:\The.Mask.1994.bdrip-avc.dexter_lex (1).mkv
Format                           : Matroska
File size                        : 1.55 GiB
Duration                         : 1h 41mn
Overall bit rate                 : 2 188 Kbps
Encoded date                     : UTC 2014-12-03 19:50:58
Writing application              : mkvmerge v6.1.0 ('Old Devil') built on Mar  4 2013 09:10:42
Writing library                  : libebml v1.3.0 + libmatroska v1.4.0

Video
ID                               : 1
Format                           : AVC
Format/Info                      : Advanced Video Codec
Format profile                   : High@L4.1
Format settings, CABAC           : Yes
Format settings, ReFrames        : 13 frames
Codec ID                         : V_MPEG4/ISO/AVC
Duration                         : 1h 41mn
Bit rate                         : 1 803 Kbps
Width                            : 864 pixels
Height                           : 486 pixels
Display aspect ratio             : 16:9
Frame rate                       : 23.976 fps
Color space                      : YUV
Chroma subsampling               : 4:2:0
Bit depth                        : 8 bits
Scan type                        : Progressive
Bits/(Pixel*Frame)               : 0.189
Stream size                      : 1.24 GiB (80%)
Writing library                  : x264 core 130 r2273 b3065e6
Encoding settings                : cabac=1 / ref=13 / deblock=1:-3:-2 / analyse=0x3:0x133 / me=umh / subme=11 / psy=1 / psy_rd=1.00:0.10 / mixed_ref=1 / me_range=48 / chroma_me=1 / trellis=2 / 8x8dct=1 / cqm=0 / deadzone=21,11 / fast_pskip=0 / chroma_qp_offset=-3 / threads=6 / lookahead_threads=1 / sliced_threads=0 / nr=0 / decimate=0 / interlaced=0 / bluray_compat=0 / constrained_intra=0 / bframes=15 / b_pyramid=2 / b_adapt=2 / b_bias=0 / direct=3 / weightb=1 / open_gop=0 / weightp=2 / keyint=240 / keyint_min=23 / scenecut=40 / intra_refresh=0 / rc_lookahead=80 / rc=2pass / mbtree=1 / bitrate=1803 / ratetol=1.0 / qcomp=0.60 / qpmin=0 / qpmax=69 / qpstep=4 / cplxblur=20.0 / qblur=0.5 / ip_ratio=1.40 / aq=2:1.00 / zones=136314,145593,q=35
Language                         : English

Audio
ID                               : 2
Format                           : AC-3
Format/Info                      : Audio Coding 3
Mode extension                   : CM (complete main)
Codec ID                         : A_AC3
Duration                         : 1h 41mn
Bit rate mode                    : Constant
Bit rate                         : 384 Kbps
Channel(s)                       : 6 channels
Channel positions                : Front: L C R, Side: L R, LFE
Sampling rate                    : 48.0 KHz
Bit depth                        : 16 bits
Compression mode                 : Lossy
Stream size                      : 278 MiB (18%)
Title                            : AVO [SANAEV]
Language                         : Russian

Text #1
ID                               : 3
Format                           : UTF-8
Codec ID                         : S_TEXT/UTF8
Codec ID/Info                    : UTF-8 Plain Text
Title                            : Forced (песни)
Language                         : Russian

Text #2
ID                               : 4
Format                           : UTF-8
Codec ID                         : S_TEXT/UTF8
Codec ID/Info                    : UTF-8 Plain Text
Title                            : Full (R5)
Language                         : Russian

Text #3
ID                               : 5
Format                           : UTF-8
Codec ID                         : S_TEXT/UTF8
Codec ID/Info                    : UTF-8 Plain Text
Language                         : English

Menu
00:00:00.000                     : en:Main Titles/the Nicest Guy
00:03:38.301                     : en:Tina Carlyle
00:07:05.216                     : en:The Loaner
00:09:28.651                     : en:Congo Bongo Club
00:12:17.987                     : en:The Mask
00:14:55.728                     : en:A Big Nothing
00:17:48.567                     : en:Smokin!
00:22:56.292                     : en:Next Morning
00:26:35.010                     : en:Peggy Brandt
00:30:34.583                     : en:Golf Practice
00:33:57.327                     : en:Somebody Stop Me
00:37:28.538                     : en:Baby Ain't I Good to You
00:39:43.214                     : en:Rock This Joint
00:42:54.572                     : en:Award Winning
00:46:03.010                     : en:Kellaway
00:48:35.037                     : en:50 Grand
00:52:56.423                     : en:Loki
00:55:49.680                     : en:Landfill Park
01:00:47.269                     : en:Cuban Pete
01:04:04.674                     : en:What a Rush!
01:09:00.678                     : en:Love-Crazy Wild Man
01:16:01.140                     : en:Milo to the Rescue
01:19:52.579                     : en:Casino Nite
01:26:11.792                     : en:Milo and the Mask
01:28:49.699                     : en:Spicy Meatball
01:32:59.657                     : en:Smokin!/End Credits




Скачать Маска.The.Mask.(Чарлз.Расселл.Charles.Russell).[1994.комедия.детектив.фэнтези.BDRip-AVC].[AVO].(П.Санаев).+.[Sub].(Rus.Eng).torrent без регистрации
Золото ЗОЛОТАЯ РАЗДАЧА! СКАЧАННОЕ НЕ ЗАСЧИТЫВАЕТСЯ! Золото
Дата: Зарегистрирован   [ Тип: внутренний ] Как тут cкачать?
MAGNET ссылка
MAGNET ссылка


Скачать .torrent

16 KB

Статус: проверено DHT
Скачан: торрент - 153 раз, раздача полностью - 67 раз
Размер: 1,55 GB
Оценка:  5 (Голосов: 3)
Поблагодарили: 3
Поделиться ссылкой на эту раздачу с друзьями:
В контактеFacebookОдноклассникиTwitterLivejournalМой МирLiveinternet
 

 
Показать сообщения:    


Вы не можете начинать темы
Вы не можете отвечать на сообщения
Вы не можете редактировать свои сообщения
Вы не можете удалять свои сообщения
Вы не можете голосовать в опросах
Вы не можете прикреплять файлы к сообщениям
Вы можете скачивать файлы