Loading...
Error

Скачать Серебряная пуля / Silver Bullet (Дэниэл Аттиас) [1985, Мистика, HDTVRip] MVO (ОРТ) + MVO (РТР) торрент без регистрации

 
Статистика раздачи
Размер:  1,46 GB   |    Скачан:  105 раз
Сидов:  1  [  0 KB/s  ]  
 
Автор Сообщение

МихаНЕзатор

[] 

Серебряная пуля
Silver Bullet


Страна: США
Жанр: Мистика
Год выпуска:1985
Продолжительность: 01:34:49
Перевод 1: Профессиональный (многоголосый закадровый) ОРТ
Перевод 2: Профессиональный (многоголосый закадровый) РТР
Cубтитры: нет
Оригинальная аудиодорожка: нет
Режиссер: Дэниэл Аттиас / Daniel Attias
Сценарий: Стивен Кинг

В ролях: Гэри Бьюзи, Терри О'Куин, Эверетт МакГилл, Кори Хейм, Меган Фоллоуз, Робин Гроувс, Леон Рассом, Билл Смитрович, Кент Бродхерст, Джеймс А. Бэффико, Лоуренс Тирни, Уильям Ньюман, Сэм Стоунбернер, Грэхэм Смит, Пол Батлер, Кристал Филд, Джулиус ЛеФлор, Перл Джоунс, Конрад МакЛарен, Джеймс Гэммон, Уильям Браун, Дэвид Харт.

Описание: Маленький городок в каждое полнолуние подвергается серии страшных убийств. Люди по ночам боятся выходить на улицу, накрепко запирают двери, и уже ни у кого не остается сомнений, что это - дело рук нечеловека. Точнее, человека, но принимающего облик зверя, когда луна становится круглой. А проще говоря - оборотня. Но как же его вычислить? Многочисленные облавы практически бесполезны. И даже, найдя его, как убить? Обычное оружие бессильно, когда речь идет о нечистой силе. Самое время отливать серебряную пулю, которой придется воспользоваться мальчику Марти, вынужденному передвигаться в инвалидной коляске.

О переводах: Переводы на трекере появляются впервые.

Качество: VHS
За исходник ОРТ спасибо
Имеются две вставки с лицензии: 00:58:01-00:58:51, 01:21:22-01:21:48
За исходник РТР спасибо
Синхронизация: mister55555



Качество видео: HDTVRip
Формат видео: AVI
Видео: XVID, 720x304, 2,35:1, 23,976 кадра/сек, 1738 Кбит/сек
Аудио 1: AC-3, 48,0 КГц, 256 Кбит/сек, 2 канала (многоголосый ОРТ)
Аудио 2: AC-3, 48,0 КГц, 192 Кбит/сек, 2 канала (многоголосый РТР)

АНОНСЫ ПОПУЛЯРНЫХ РАЗДАЧ
Общее
Полное имя : D:\с диска Е\инет\Раздачи\Silver Bullet\Silver Bullet.1985.HDTVRip.ORT- RTR.avi
Формат : AVI
Формат/Информация : Audio Video Interleave
Размер файла : 1,46 Гбайт
Продолжительность : 1 ч. 34 м.
Общий поток : 2200 Кбит/сек
Название фильма : Silver.Bullet_1985_HDTVRip
Программа кодирования : VirtualDubModRus 1.5.10.2 (build 2542/release)
Библиотека кодирования : VirtualDubMod build 2542/release
Видео
Идентификатор : 0
Формат : MPEG-4 Visual
Профиль формата : Advanced Simple@L5
Параметр BVOP формата : 1
Параметр QPel формата : Нет
Параметр GMC формата : Без точки перехода
Параметр матрицы формата : Выборочная
Идентификатор кодека : XVID
Идентификатор кодека/Подсказка : XviD
Продолжительность : 1 ч. 34 м.
Битрейт : 1738 Кбит/сек
Ширина : 720 пикселей
Высота : 304 пикселя
Соотношение сторон : 2,35:1
Частота кадров : 23,976 кадра/сек
Цветовое пространство : YUV
Субдискретизация насыщенности : 4:2:0
Битовая глубина : 8 бит
Тип развёртки : Прогрессивная
Метод сжатия : С потерями
Бит/(Пиксели*Кадры) : 0.331
Размер потока : 1,15 Гбайт (79%)
Библиотека кодирования : XviD 1.2.1 (UTC 2008-12-04)
Аудио #1
Идентификатор : 1
Формат : AC-3
Формат/Информация : Audio Coding 3
Расширение режима : CM (complete main)
Параметр Endianness формата : Big
Идентификатор кодека : 2000
Продолжительность : 1 ч. 34 м.
Вид битрейта : Постоянный
Битрейт : 256 Кбит/сек
Каналы : 2 канала
Расположение каналов : Front: L R
Частота : 48,0 КГц
Битовая глубина : 16 бит
Метод сжатия : С потерями
Размер потока : 174 Мбайт (12%)
Выравнивание : Разделение по промежуткам
Продолжительность промежутка : 42 мс. (1,00 видеокадр)
Время предзагрузки промежутка : 500 мс.
Заголовок : многоголосый ОРТ
Аудио #2
Идентификатор : 2
Формат : AC-3
Формат/Информация : Audio Coding 3
Расширение режима : CM (complete main)
Параметр Endianness формата : Big
Идентификатор кодека : 2000
Продолжительность : 1 ч. 34 м.
Вид битрейта : Постоянный
Битрейт : 192 Кбит/сек
Каналы : 2 канала
Расположение каналов : Front: L R
Частота : 48,0 КГц
Битовая глубина : 16 бит
Метод сжатия : С потерями
Размер потока : 130 Мбайт (9%)
Выравнивание : Разделение по промежуткам
Продолжительность промежутка : 42 мс. (1,00 видеокадр)
Время предзагрузки промежутка : 500 мс.
Заголовок : многоголосый РТР



Скачать Серебряная.пуля.Silver.Bullet.(Дэниэл.Аттиас).[1985.Мистика.HDTVRip].MVO.(ОРТ).+.MVO.(РТР).torrent без регистрации
Золото ЗОЛОТАЯ РАЗДАЧА! СКАЧАННОЕ НЕ ЗАСЧИТЫВАЕТСЯ! Золото
Дата: Зарегистрирован   [ Тип: внутренний ] Как тут cкачать?
MAGNET ссылка
MAGNET ссылка


Скачать .torrent

15 KB

Статус: проверено DHT
Скачан: торрент - 105 раз, раздача полностью - 32 раз
Размер: 1,46 GB
Оценка:  - (Голосов: 0)
Поблагодарили: 0
Поделиться ссылкой на эту раздачу с друзьями:
В контактеFacebookОдноклассникиTwitterLivejournalМой МирLiveinternet
 

 
Показать сообщения:    


Вы не можете начинать темы
Вы не можете отвечать на сообщения
Вы не можете редактировать свои сообщения
Вы не можете удалять свои сообщения
Вы не можете голосовать в опросах
Вы не можете прикреплять файлы к сообщениям
Вы можете скачивать файлы