Loading...
Error

Скачать Способный ученик / Apt Pupil (Брайан Сингер) [1998, триллер, драма, экранизация, BDRip-AVC] [MVO]+[DVO]+[AVO]+[Sub]x2 торрент без регистрации

 
Статистика раздачи
Размер:  2,93 GB   |    Скачан:  154 раза
Сидов:  1  [  0 KB/s  ]  
 
Автор Сообщение

Marsianka

[] 

Информация о фильме
Название: Способный ученик
Оригинальное название: Apt Pupil
Год выхода: 1998
Жанр: триллер, драма, экранизация
Режиссер: Брайан Сингер
В ролях: Брэд Ренфро, Иэн МакКеллен, Джошуа Джексон, Мики Коттрелл, Майкл Рид МакКей, Энн Дауд, Брюс Дэвисон, Джеймс Карен, Марджори Ловетт, Дэвид Кули, Хизер МакКомб, Кэтерин Мэлоун, Грэйс Синден, Дэвид Швиммер, Энтони Мур, Кевин Спиртас, Майкл Бирн, Данна Дэннис, Ян Тришка, Джо Мортон

О фильме: Экранизация одноименного романа Стивена Кинга. История - любимый предмет американского школьника Тодда Боудена. Со страхом и трепетом он листает летопись кровавого прошлого, вглядываясь в лица безымянных жертв. Неожиданно мальчик выясняет, что его сосед - жестокий нацистский преступник, сумевший избежать правосудия. В обмен на свое молчание подросток требует, чтобы старик открыл ему зловещие тайны самой мрачной страницы в истории человечества. Пока его сверстники штудируют физику и математику, Тодд изучает страшную науку, которую не проходят в школе - науку зла. Его сосед оказывается хорошим учителем. В тихом запуганном старике снова просыпается кровавый надзиратель концлагеря Курт Дюссандер. И для способного ученика наступает время решающего экзамена…



Страна: США, Канада, Франция
Студия: TriStar Pictures
Продолжительность: 01:51:10
Перевод: Профессиональный многоголосый, профессиональный двухголосый, авторский одноголосый

Файл
Кодек: MPEG-4 AVC
Качество: BDRip-AVC
Видео: 2300 Кбит/с, 1024х426, 23.976 кадр/с

Семпл
Аудио #1: Русский (AC3, 6 ch, 384 Кбит/с) / Профессиональный многоголосый (Видео Сервис)
Аудио #2: Русский (AC3, 2 ch, 192 Кбит/с) / Профессиональный двухголосый (СТС)
Аудио #3: Русский (AC3, 6 ch, 448 Кбит/с) / Авторский одноголосый (Ю. Живов)
Аудио #4: Английский (AC3, 6 ch, 448 Кбит/с)
Субтитры: Русские, английские (full, SDH)
Общее
Уникальный идентификатор : 211934528912951760333412325798107223760 (0x9F711B0536B8CAA58FB77ECA36FD16D0)
Полное имя : H:1FilmsHРелизыSposobnyj.uchenik.1998.x264.BDRip.AVC.MediaClub.mkv
Формат : Matroska
Версия формата : Version 4 / Version 2
Размер файла : 2,93 Гбайт
Продолжительность : 1 ч. 51 м.
Общий поток : 3774 Кбит/сек
Название фильма : -= MediaClub =- rip by Lefevr
Дата кодирования : UTC 2014-11-28 14:06:58
Программа кодирования : mkvmerge v6.1.0 ('Old Devil') built on Mar 4 2013 09:10:42
Библиотека кодирования : libebml v1.3.0 + libmatroska v1.4.0

Видео
Идентификатор : 1
Формат : AVC
Формат/Информация : Advanced Video Codec
Профиль формата : High@L4.1
Параметр CABAC формата : Да
Параметр ReFrames формата : 9 кадров
Идентификатор кодека : V_MPEG4/ISO/AVC
Продолжительность : 1 ч. 51 м.
Битрейт : 2300 Кбит/сек
Ширина : 1024 пикселя
Высота : 426 пикселей
Соотношение сторон : 2,40:1
Режим частоты кадров : Постоянный
Частота кадров : 23,976 кадра/сек
Цветовое пространство : YUV
Субдискретизация насыщенности : 4:2:0
Битовая глубина : 8 бит
Тип развёртки : Прогрессивная
Бит/(Пиксели*Кадры) : 0.220
Размер потока : 1,73 Гбайт (59%)
Заголовок : Sposobnyj.uchenik.1998.x264.BDRip.AVC.MediaClub
Библиотека кодирования : x264 core 130 r2273 b3065e6
Настройки программы : cabac=1 / ref=9 / deblock=1:-2:-2 / analyse=0x3:0x133 / me=umh / subme=11 / psy=1 / psy_rd=1.00:0.15 / mixed_ref=1 / me_range=32 / chroma_me=1 / trellis=2 / 8x8dct=1 / cqm=0 / deadzone=21,11 / fast_pskip=0 / chroma_qp_offset=-3 / threads=6 / lookahead_threads=1 / sliced_threads=0 / nr=0 / decimate=0 / interlaced=0 / bluray_compat=0 / constrained_intra=0 / bframes=8 / b_pyramid=2 / b_adapt=2 / b_bias=0 / direct=3 / weightb=1 / open_gop=0 / weightp=2 / keyint=240 / keyint_min=23 / scenecut=40 / intra_refresh=0 / rc=2pass / mbtree=0 / bitrate=2300 / ratetol=1.0 / qcomp=0.60 / qpmin=0 / qpmax=69 / qpstep=4 / cplxblur=20.0 / qblur=0.5 / ip_ratio=1.40 / pb_ratio=1.30 / aq=1:1.00
Язык : English
Default : Да
Forced : Да

Аудио #1
Идентификатор : 2
Формат : AC-3
Формат/Информация : Audio Coding 3
Расширение режима : CM (complete main)
Параметр Endianness формата : Big
Идентификатор кодека : A_AC3
Продолжительность : 1 ч. 51 м.
Вид битрейта : Постоянный
Битрейт : 384 Кбит/сек
Каналы : 6 каналов
Расположение каналов : Front: L C R, Side: L R, LFE
Частота : 48,0 КГц
Битовая глубина : 16 бит
Метод сжатия : С потерями
Размер потока : 305 Мбайт (10%)
Заголовок : TRACK_01_MVO_RUS_VideoServis
Язык : Russian
Default : Да
Forced : Да

Аудио #2
Идентификатор : 3
Формат : AC-3
Формат/Информация : Audio Coding 3
Расширение режима : CM (complete main)
Параметр Endianness формата : Big
Идентификатор кодека : A_AC3
Продолжительность : 1 ч. 51 м.
Вид битрейта : Постоянный
Битрейт : 192 Кбит/сек
Каналы : 2 канала
Расположение каналов : Front: L R
Частота : 48,0 КГц
Битовая глубина : 16 бит
Метод сжатия : С потерями
Размер потока : 153 Мбайт (5%)
Заголовок : TRACK_02_DVO_RUS_CTC
Язык : Russian
Default : Нет
Forced : Нет

Аудио #3
Идентификатор : 4
Формат : AC-3
Формат/Информация : Audio Coding 3
Расширение режима : CM (complete main)
Параметр Endianness формата : Big
Идентификатор кодека : A_AC3
Продолжительность : 1 ч. 51 м.
Вид битрейта : Постоянный
Битрейт : 448 Кбит/сек
Каналы : 6 каналов
Расположение каналов : Front: L C R, Side: L R, LFE
Частота : 48,0 КГц
Битовая глубина : 16 бит
Метод сжатия : С потерями
Размер потока : 356 Мбайт (12%)
Заголовок : TRACK_03_AVO_RUS_Zhivov
Язык : Russian
Default : Нет
Forced : Нет

Аудио #4
Идентификатор : 5
Формат : AC-3
Формат/Информация : Audio Coding 3
Расширение режима : CM (complete main)
Параметр Endianness формата : Big
Идентификатор кодека : A_AC3
Продолжительность : 1 ч. 51 м.
Вид битрейта : Постоянный
Битрейт : 448 Кбит/сек
Каналы : 6 каналов
Расположение каналов : Front: L C R, Side: L R, LFE
Частота : 48,0 КГц
Битовая глубина : 16 бит
Метод сжатия : С потерями
Размер потока : 356 Мбайт (12%)
Заголовок : TRACK_04_ORIGINAL_ENG
Язык : English
Default : Нет
Forced : Нет

Текст #1
Идентификатор : 6
Формат : UTF-8
Идентификатор кодека : S_TEXT/UTF8
Идентификатор кодека/Информация : UTF-8 Plain Text
Заголовок : TEXT_01_SUB_RUS.srt
Язык : Russian
Default : Нет
Forced : Нет

Текст #2
Идентификатор : 7
Формат : UTF-8
Идентификатор кодека : S_TEXT/UTF8
Идентификатор кодека/Информация : UTF-8 Plain Text
Заголовок : TEXT_02_SUB_ENG.srt
Язык : English
Default : Нет
Forced : Нет

Текст #3
Идентификатор : 8
Формат : UTF-8
Идентификатор кодека : S_TEXT/UTF8
Идентификатор кодека/Информация : UTF-8 Plain Text
Заголовок : TEXT_03_SUB_ENG_SDH.srt
Язык : English
Default : Нет
Forced : Нет

Меню
00:00:00.000 : en:Start
00:06:52.202 : en:Mr. Dussander
00:14:38.836 : en:Real Proof
00:18:56.844 : en:Gas Leak
00:29:35.607 : en:Dinner With Arthur
00:35:47.353 : en:Hitting the Showers
00:40:40.896 : en:Clothes Make the Man
00:48:33.368 : en:Timmy
00:56:15.789 : en:Broken Wing
01:05:46.734 : en:A Real Problem
01:09:00.928 : en:Grandpa Intervenes
01:15:10.756 : en:Reality
01:22:39.996 : en:Beginning & End
01:29:48.716 : en:Practically Neighbors
01:37:08.238 : en:Last Call
01:42:44.366 : en:"I Need Help."

...last pass...

x264.exe: --pass 2 --bitrate 2300 --preset veryslow --profile high --level 4.1 --ref 9 --deblock -2:-2 --merange 32 --no-fast-pskip --no-dct-decimate --psy-rd 1.00:0.15 --subme 11 --no-mbtree --keyint 240 --sar 1:1 --stats "E:1Films EРелизыApt Pupil11111.log" --output "E:1Films EРелизыApt Pupil11111.mkv" "F:Temp037.avs"

avs [info]: 1024x426p 1:1 @ 2500000/104271 fps (cfr)
x264 [info]: using SAR=1/1
x264 [info]: using cpu capabilities: MMX2 SSE2Fast SSSE3 SSE4.2 AVX
x264 [info]: profile High, level 4.1

x264 [info]: frame I:1323 Avg QP:15.75 size: 64945
x264 [info]: frame P:31616 Avg QP:18.48 size: 24094
x264 [info]: frame B:126997 Avg QP:19.76 size: 8418
x264 [info]: consecutive B-frames: 1.9% 1.9% 5.0% 13.4% 17.0% 39.3% 10.5% 5.6% 5.4%
x264 [info]: mb I I16..4: 17.7% 64.3% 18.0%
x264 [info]: mb P I16..4: 0.7% 13.4% 1.1% P16..4: 28.9% 35.0% 13.4% 1.9% 0.1% skip: 5.5%
x264 [info]: mb B I16..4: 0.0% 0.8% 0.1% B16..8: 38.9% 22.2% 4.0% direct: 5.9% skip:28.1% L0:44.9% L1:44.1% BI:11.0%
x264 [info]: 8x8 transform intra:83.7% inter:52.7%
x264 [info]: direct mvs spatial:98.8% temporal:1.2%
x264 [info]: coded y,uvDC,uvAC intra: 93.8% 84.5% 64.9% inter: 31.8% 22.6% 9.9%
x264 [info]: i16 v,h,dc,p: 31% 6% 23% 40%
x264 [info]: i8 v,h,dc,ddl,ddr,vr,hd,vl,hu: 9% 7% 12% 10% 13% 13% 12% 12% 12%
x264 [info]: i4 v,h,dc,ddl,ddr,vr,hd,vl,hu: 13% 6% 6% 9% 15% 15% 12% 12% 11%
x264 [info]: i8c dc,h,v,p: 45% 21% 18% 17%
x264 [info]: Weighted P-Frames: Y:12.1% UV:5.5%
x264 [info]: ref P L0: 40.8% 10.5% 20.6% 7.5% 6.8% 4.4% 4.4% 2.2% 2.4% 0.4% 0.0%
x264 [info]: ref B L0: 65.9% 14.8% 7.7% 4.3% 3.0% 2.6% 1.3% 0.4%
x264 [info]: ref B L1: 90.9% 9.1%
x264 [info]: kb/s:2298.75
Релиз от: | Автор рипа:



Скачать Способный.ученик.Apt.Pupil.(Брайан.Сингер).[1998.триллер.драма.экранизация.BDRip-AVC].[MVO]+[DVO]+[AVO]+[Sub]x2.torrent без регистрации
Золото ЗОЛОТАЯ РАЗДАЧА! СКАЧАННОЕ НЕ ЗАСЧИТЫВАЕТСЯ! Золото
Дата: Зарегистрирован   [ Тип: внутренний ] Как тут cкачать?
MAGNET ссылка
MAGNET ссылка


Скачать .torrent

15 KB

Статус: проверено DHT
Скачан: торрент - 154 раз, раздача полностью - 7 раз
Размер: 2,93 GB
Оценка:  - (Голосов: 0)
Поблагодарили: 1
Поделиться ссылкой на эту раздачу с друзьями:
В контактеFacebookОдноклассникиTwitterLivejournalМой МирLiveinternet
 

 

apsio

[] 

Интересно, что побудило именно американцев экранизировать Стивена Кинга, скажем, если это сделали бы израильтяне, было бы абсолютно логично.
Выставлять свое общество в мягко говоря неприглядном виде, тем более в современном мире, когда и так оно не очень хорошо выглядит, это что самобичевание или своего рода извращенный мазохизм?
Представте на секунду, что вырастет из главного героя?
 
Показать сообщения:    


Вы не можете начинать темы
Вы не можете отвечать на сообщения
Вы не можете редактировать свои сообщения
Вы не можете удалять свои сообщения
Вы не можете голосовать в опросах
Вы не можете прикреплять файлы к сообщениям
Вы можете скачивать файлы