Loading...
Error

Скачать Человек тьмы / Darkman (Сэм Рэйми) [1990, фантастика, боевик, триллер, криминал, BDRip-AVC] [MVO]x3+[AVO (Андрей Гаврилов)]+[Sub]x2 торрент без регистрации

 
Статистика раздачи
Размер:  2,54 GB   |    Скачан:  123 раза
Сидов:  1  [  0 KB/s  ]  
 
Автор Сообщение

Marsianka

[] 

Человек тьмы
| Darkman |


Информация о фильме
Название: Человек тьмы
Оригинальное название: Darkman
Год выхода: 1990
Жанр: фантастика, боевик, триллер, криминал
Режиссер: Сэм Рэйми
В ролях: Лиам Нисон, Фрэнсис Макдорманд, Колин Фрайлз, Ларри Дрэйк, Нельсон Масита, Уильям Дир, Джон Лэндис, Уильям Люстиг, Тед Рейми, профессор Тору Танака, Джесси Лоуренс Фергюсон, Рафаэль Х. Робледо, Дэн Хикс, Дэн Белл, Николас Уорт, Аарон Лустиг, Арсенио Тринидад, Саид Фарай, Натан Юнг, Джон Лисбон Вуд, Фрэнк Нун, Джулиус Харрис, Карл Бреск, Шон Дэниэл, Крэйг Хоскин, Карл А. Уикмэн, Филип А. Гиллис, Клифф Флеминг, Энди Бейл

О фильме:
Доктор Пэйтон Уэстлэйк находится на пороге грандиозного открытия: он заканчивает эксперименты по созданию искусственной человеческой кожи. Но банда уголовников во главе с извращённым садистом Робертом Дюраном вторгается в лабораторию Пэйтона и взрывает её вместе с несчастным доктором. Чудом оставшийся в живых и обезображенный до неузнаваемости, Пэйтон решает отомстить подонкам. Но теперь он предстанет перед ними не как доктор Уэстлэйк, а как грозный и жуткий Человек Тьмы.



Страна: США
Студия: Renaissance Pictures, Universal Pictures, Introvision International, Makeup Effects Laboratories Inc., 4-Ward Productions
Продолжительность: 01:35:23
Перевод: Профессиональный многоголосый, авторский

Файл
Кодек: h.264
Качество: BDRip-AVC
Видео: 2282 Kбит/с, 1024x556, 23.976 кадр/с
• №1: Русский (АС3, 6 ch, 384 Кбит/с) Профессиональный многоголосый [R5 Lizard Cinema Trade]
• №2: Русский (АС3, 2 ch, 192 Кбит/с) Профессиональный многоголосый [Позитив-Мультимедиа]
• №3: Русский (АС3, 6 ch, 384 Кбит/с) Авторский одноголосый [Андрей Гаврилов]
• №4: Украинский (АС3, 2 ch, 192 Кбит/с) Профессиональный многоголосый [1+1]
• №5: Английский (АС3, 6 ch, 384 Кбит/с)

Субтитры: Русские, английские

--------------------------------------------------------------------------------------
x264 [info]: frame I:917 Avg QP:15.09 size: 60504
x264 [info]: frame P:35479 Avg QP:18.16 size: 23089
x264 [info]: frame B:100827 Avg QP:20.44 size: 7508
x264 [info]: consecutive B-frames: 3.4% 6.2% 9.4% 38.0% 13.0% 23.8% 3.0% 2.0% 0.5% 0.6%
--------------------------------------------------------------------------------------

Полное имя : Darkman.1990.x264.BDRip-AVC.0ptimus.mkv
Формат : Matroska
Версия формата : Version 2
Размер файла : 2,54 Гбайт
Продолжительность : 1 ч. 35 м.
Общий поток : 3819 Кбит/сек
Название фильма : Человек тьмы | Darkman [1990] -= BDRip (AVC) by 0ptimus =-
Дата кодирования : UTC 2014-03-22 05:32:25
Программа кодирования : mkvmerge v6.6.0 ('The Edge Of The In Between') built on Dec 1 2013 17:55:00
Библиотека кодирования : libebml v1.3.0 + libmatroska v1.4.1

Видео
Идентификатор : 1
Формат : AVC
Формат/Информация : Advanced Video Codec
Профиль формата : High@L4.1
Параметр CABAC формата : Да
Параметр ReFrames формата : 8 кадров
Идентификатор кодека : V_MPEG4/ISO/AVC
Продолжительность : 1 ч. 35 м.
Битрейт : 2282 Кбит/сек
Ширина : 1024 пикселя
Высота : 556 пикселей
Соотношение сторон : 1,85:1
Режим частоты кадров : Постоянный
Частота кадров : 23,976 кадра/сек
Цветовое пространство : YUV
Субдискретизация насыщенности : 4:2:0
Битовая глубина : 8 бит
Тип развёртки : Прогрессивная
Бит/(Пиксели*Кадры) : 0.167
Размер потока : 1,47 Гбайт (58%)
Заголовок : Rip by 0ptimus
Библиотека кодирования : x264 core 133 r2334 a3ac64b
Настройки программы : cabac=1 / ref=8 / deblock=1:-2:-1 / analyse=0x3:0x113 / me=umh / subme=11 / psy=1 / psy_rd=1.00:0.20 / mixed_ref=1 / me_range=32 / chroma_me=1 / trellis=2 / 8x8dct=1 / cqm=0 / deadzone=21,11 / fast_pskip=0 / chroma_qp_offset=-3 / threads=3 / lookahead_threads=1 / sliced_threads=0 / nr=0 / decimate=0 / interlaced=0 / bluray_compat=0 / constrained_intra=0 / bframes=9 / b_pyramid=2 / b_adapt=2 / b_bias=0 / direct=3 / weightb=1 / open_gop=0 / weightp=2 / keyint=240 / keyint_min=23 / scenecut=40 / intra_refresh=0 / rc_lookahead=40 / rc=2pass / mbtree=0 / bitrate=2282 / ratetol=1.0 / qcomp=0.60 / qpmin=0 / qpmax=69 / qpstep=4 / cplxblur=20.0 / qblur=0.5 / vbv_maxrate=25000 / vbv_bufsize=25000 / nal_hrd=none / ip_ratio=1.40 / pb_ratio=1.30 / aq=1:1.00
Язык : English
Default : Да
Forced : Нет

Аудио #1
Идентификатор : 2
Формат : AC-3
Формат/Информация : Audio Coding 3
Расширение режима : CM (complete main)
Параметр Endianness формата : Big
Идентификатор кодека : A_AC3
Продолжительность : 1 ч. 35 м.
Вид битрейта : Постоянный
Битрейт : 384 Кбит/сек
Каналы : 6 каналов
Расположение каналов : Front: L C R, Side: L R, LFE
Частота : 48,0 КГц
Битовая глубина : 16 бит
Метод сжатия : С потерями
Размер потока : 262 Мбайт (10%)
Заголовок : Многоголосый закадровый [R5 Lizard Cinema Trade] AC3 5.1 @ 384 kbps
Язык : Russian
Default : Да
Forced : Да

Аудио #2
Идентификатор : 3
Формат : AC-3
Формат/Информация : Audio Coding 3
Расширение режима : CM (complete main)
Параметр Endianness формата : Big
Идентификатор кодека : A_AC3
Продолжительность : 1 ч. 35 м.
Вид битрейта : Постоянный
Битрейт : 192 Кбит/сек
Каналы : 2 канала
Расположение каналов : Front: L R
Частота : 48,0 КГц
Битовая глубина : 16 бит
Метод сжатия : С потерями
Размер потока : 131 Мбайт (5%)
Заголовок : Многоголосый закадровый [Позитив-Мультимедиа] AC3 2.0 @ 192 kbps
Язык : Russian
Default : Нет
Forced : Нет

Аудио #3
Идентификатор : 4
Формат : AC-3
Формат/Информация : Audio Coding 3
Расширение режима : CM (complete main)
Параметр Endianness формата : Big
Идентификатор кодека : A_AC3
Продолжительность : 1 ч. 35 м.
Вид битрейта : Постоянный
Битрейт : 384 Кбит/сек
Каналы : 6 каналов
Расположение каналов : Front: L C R, Side: L R, LFE
Частота : 48,0 КГц
Битовая глубина : 16 бит
Метод сжатия : С потерями
Размер потока : 262 Мбайт (10%)
Заголовок : Авторский [Андрей Гаврилов] AC3 5.1 @ 384 kbps
Язык : Russian
Default : Нет
Forced : Нет

Аудио #4
Идентификатор : 5
Формат : AC-3
Формат/Информация : Audio Coding 3
Расширение режима : CM (complete main)
Параметр Endianness формата : Big
Идентификатор кодека : A_AC3
Продолжительность : 1 ч. 35 м.
Вид битрейта : Постоянный
Битрейт : 192 Кбит/сек
Каналы : 2 канала
Расположение каналов : Front: L R
Частота : 48,0 КГц
Битовая глубина : 16 бит
Метод сжатия : С потерями
Размер потока : 131 Мбайт (5%)
Заголовок : Многоголосый закадровый [1+1] AC3 2.0 @ 192 kbps
Язык : Ukrainian
Default : Нет
Forced : Нет

Аудио #5
Идентификатор : 6
Формат : AC-3
Формат/Информация : Audio Coding 3
Расширение режима : CM (complete main)
Параметр Endianness формата : Big
Идентификатор кодека : A_AC3
Продолжительность : 1 ч. 35 м.
Вид битрейта : Постоянный
Битрейт : 384 Кбит/сек
Каналы : 6 каналов
Расположение каналов : Front: L C R, Side: L R, LFE
Частота : 48,0 КГц
Битовая глубина : 16 бит
Метод сжатия : С потерями
Размер потока : 262 Мбайт (10%)
Заголовок : AC3 5.1 @ 384 kbps
Язык : English
Default : Нет
Forced : Нет

Текст #1
Идентификатор : 7
Формат : UTF-8
Идентификатор кодека : S_TEXT/UTF8
Идентификатор кодека/Информация : UTF-8 Plain Text
Язык : Russian
Default : Нет
Forced : Нет

Текст #2
Идентификатор : 8
Формат : UTF-8
Идентификатор кодека : S_TEXT/UTF8
Идентификатор кодека/Информация : UTF-8 Plain Text
Язык : English
Default : Нет
Forced : Нет

Меню
00:00:00.000 : en:Just Another Tough Guy
00:05:32.623 : en:Main Titles
00:09:35.032 : en:Peyt and Jules
00:14:49.805 : en:What is It About the Dark?
00:19:35.507 : en:Blown to Pieces
00:21:46.430 : en:The Hospital
00:28:21.991 : en:Setting Up Shop
00:34:42.997 : en:Rick Retires
00:36:29.812 : en:Playing Pauly
00:50:18.682 : en:The Duplicant Durant
00:57:54.470 : en:The Pink Elephant
01:09:03.055 : en:War at the Warehouse
01:11:19.942 : en:Darkman Gets Some
01:14:22.291 : en:The Enemies In the Air
01:20:24.277 : en:On the Edge
01:29:08.343 : en:End Titles: Call Me Darkman
Релиз от:



Скачать Человек.тьмы.Darkman.(Сэм.Рэйми).[1990.фантастика.боевик.триллер.криминал.BDRip-AVC].[MVO]x3+[AVO.(Андрей.Гаврилов)]+[Sub]x2.torrent без регистрации
Золото ЗОЛОТАЯ РАЗДАЧА! СКАЧАННОЕ НЕ ЗАСЧИТЫВАЕТСЯ! Золото
Дата: Зарегистрирован   [ Тип: внутренний ] Как тут cкачать?
MAGNET ссылка
MAGNET ссылка


Скачать .torrent

26 KB

Статус: проверено DHT
Скачан: торрент - 123 раз, раздача полностью - 29 раз
Размер: 2,54 GB
Оценка:  5 (Голосов: 1)
Поблагодарили: 4
Поделиться ссылкой на эту раздачу с друзьями:
В контактеFacebookОдноклассникиTwitterLivejournalМой МирLiveinternet
 

 
Показать сообщения:    


Вы не можете начинать темы
Вы не можете отвечать на сообщения
Вы не можете редактировать свои сообщения
Вы не можете удалять свои сообщения
Вы не можете голосовать в опросах
Вы не можете прикреплять файлы к сообщениям
Вы можете скачивать файлы