Loading...
Error

Скачать Искупление / Atonement (Джо Райт / Joe Wright) [2007 г., Mелодрама, драма, военный, BDRip-AVC] [AVO] (Ю.Сербин) + [Sub] (Rus, Eng) торрент без регистрации

 
Статистика раздачи
Размер:  2,07 GB   |    Скачан:  116 раз
Сидов:  1  [  0 KB/s  ]  
 
Автор Сообщение

leon030982

[] 

Искупление / Atonement



Год выпуска: 2007
Страна: Франция, Великобритания
Жанр: драма, военный, мелодрама
Продолжительность: 02:02:49
Перевод: Авторский (одноголосый, закадровый) [Ю.Сербин]
Cубтитры: русские, английские
Формат субтитров: SoftSub (srt)

Режиссер: Джо Райт / Joe Wright

В ролях: Кира Найтли, Джеймс МакЭвой, Ромола Гарай, Сирша Ронан, Бенедикт Камбербэтч, Бренда Блетин, Ванесса Рэдгрейв, Джуно Темпл, Нонсо Анози

Описание: 13-летняя Бриони обладает превосходным воображением и пишет пьесы. Она знает, что сын прислуги Робби влюблен в ее старшую сестру Сесилию, и та отвечает ему взаимностью. Но когда ее кузина Лола становится жертвой насильника, Бриони уверено показывает на Робби — ее воображение дорисовывает картину насилия. Робби отправляется в тюрьму, а Сесилия отказывается верить Брионии, рождая страшную вражду между сестрами. Действие фильма начинается в 1934 году и разворачивается на фоне Второй мировой войны.



Качество видео: BDRip-AVC [исх. BDRemux 1080p]
Формат видео: MKV
Видео кодек: AVC
Аудио кодек: AC3
Видео: V_MPEG4/ISO/AVC, 1022x554 (16:9), 23,976 кадр/сек, 1963 Кбит/сек, 0.157 bit/pixel
Аудио: AC-3, 448 Кбит/сек, 6 каналов, 48,0 КГц [AVO]


Код:

General
Unique ID                        : 204475408744679009076335577121855797794 (0x99D488009AAE4B59B84DA3D413467A22)
Complete name                    : E:\INTERNET\Atonement.2007.BDRip-AVC.[AVO] (SERBIN)+ Sub.Km.mkv
Format                           : Matroska
File size                        : 2.07 GiB
Duration                         : 2h 2mn
Overall bit rate                 : 2 410 Kbps
Movie name                       : Atonement. (2007) BDRip-AVC [AVO] (SERBIN)
Encoded date                     : UTC 2014-12-11 12:15:36
Writing application              : mkvmerge v6.1.0 ('Old Devil') built on Mar  4 2013 09:10:42
Writing library                  : libebml v1.3.0 + libmatroska v1.4.0

Video
ID                               : 1
Format                           : AVC
Format/Info                      : Advanced Video Codec
Format profile                   : High@L4.1
Format settings, CABAC           : Yes
Format settings, ReFrames        : 11 frames
Codec ID                         : V_MPEG4/ISO/AVC
Duration                         : 2h 2mn
Bit rate                         : 1 963 Kbps
Width                            : 1 022 pixels
Height                           : 554 pixels
Display aspect ratio             : 16:9
Frame rate                       : 23.976 fps
Color space                      : YUV
Chroma subsampling               : 4:2:0
Bit depth                        : 8 bits
Scan type                        : Progressive
Bits/(Pixel*Frame)               : 0.157
Stream size                      : 1.64 GiB (79%)
Writing library                  : x264 core 120 r2164 da19765
Encoding settings                : cabac=1 / ref=11 / deblock=1:-3:-3 / analyse=0x3:0x113 / me=umh / subme=9 / psy=1 / psy_rd=1.00:0.00 / mixed_ref=1 / me_range=48 / chroma_me=1 / trellis=2 / 8x8dct=1 / cqm=0 / deadzone=21,11 / fast_pskip=1 / chroma_qp_offset=-2 / threads=5 / sliced_threads=0 / nr=0 / decimate=1 / interlaced=0 / bluray_compat=0 / constrained_intra=0 / bframes=10 / b_pyramid=2 / b_adapt=1 / b_bias=0 / direct=3 / weightb=1 / open_gop=0 / weightp=2 / keyint=240 / keyint_min=22 / scenecut=40 / intra_refresh=0 / rc=2pass / mbtree=0 / bitrate=1963 / ratetol=1.0 / qcomp=0.60 / qpmin=10 / qpmax=51 / qpstep=4 / cplxblur=20.0 / qblur=0.5 / ip_ratio=1.40 / pb_ratio=1.30 / aq=1:1.00

Audio
ID                               : 2
Format                           : AC-3
Format/Info                      : Audio Coding 3
Mode extension                   : CM (complete main)
Codec ID                         : A_AC3
Duration                         : 2h 2mn
Bit rate mode                    : Constant
Bit rate                         : 448 Kbps
Channel(s)                       : 6 channels
Channel positions                : Front: L C R, Side: L R, LFE
Sampling rate                    : 48.0 KHz
Bit depth                        : 16 bits
Compression mode                 : Lossy
Stream size                      : 394 MiB (19%)
Title                            : AVO (SERBIN)
Language                         : Russian

Text #1
ID                               : 3
Format                           : UTF-8
Codec ID                         : S_TEXT/UTF8
Codec ID/Info                    : UTF-8 Plain Text
Language                         : Russian

Text #2
ID                               : 4
Format                           : UTF-8
Codec ID                         : S_TEXT/UTF8
Codec ID/Info                    : UTF-8 Plain Text
Language                         : English

Menu
00:00:00.000                     : en:First Play (Main Titles)
00:06:19.921                     : en:Two Figures By A Fountain
00:13:43.281                     : en:Closer Relations
00:20:16.215                     : en:A Written Apology
00:25:55.387                     : en:Interference
00:32:52.762                     : en:Act of Love
00:38:33.353                     : en:No Harm Done
00:43:24.894                     : en:False Witness
00:49:24.628                     : en:Serving Time
00:57:40.290                     : en:Save Me
01:04:09.763                     : en:By the Sea
01:10:14.794                     : en:Putting Things Right
01:17:18.092                     : en:Remembering
01:20:00.170                     : en:Not Ready
01:25:00.595                     : en:Can't Escape
01:28:37.979                     : en:Wounded
01:34:17.652                     : en:With My Own Eyes
01:37:28.801                     : en:Telling the Truth
01:46:06.235                     : en:Final Act
01:54:21.396                     : en:End Titles



Скачать Искупление.Atonement.(Джо.Райт.Joe.Wright).[2007.г.Mелодрама.драма.военный.BDRip-AVC].[AVO].(Ю.Сербин).+.[Sub].(Rus.Eng).torrent без регистрации
Золото ЗОЛОТАЯ РАЗДАЧА! СКАЧАННОЕ НЕ ЗАСЧИТЫВАЕТСЯ! Золото
Дата: Зарегистрирован   [ Тип: внутренний ] Как тут cкачать?
MAGNET ссылка
MAGNET ссылка


Скачать .torrent

11 KB

Статус: проверено DHT
Скачан: торрент - 116 раз, раздача полностью - 13 раз
Размер: 2,07 GB
Оценка:  5 (Голосов: 1)
Поблагодарили: 1
Поделиться ссылкой на эту раздачу с друзьями:
В контактеFacebookОдноклассникиTwitterLivejournalМой МирLiveinternet
 

 
Показать сообщения:    


Вы не можете начинать темы
Вы не можете отвечать на сообщения
Вы не можете редактировать свои сообщения
Вы не можете удалять свои сообщения
Вы не можете голосовать в опросах
Вы не можете прикреплять файлы к сообщениям
Вы можете скачивать файлы