Loading...
Error

Скачать Крах / The Fall (снзон 02) (Аллан Кабитт, Якоб Вербрюгген) [2014, триллер, драма, HDTVRip] [MVO (Jaskier)] торрент без регистрации

 
Статистика раздачи
Размер:  4,62 GB   |    Скачан:  134 раза
Сидов:  1  [  0 KB/s  ]  
 
Автор Сообщение

МихаНЕзатор

[] 

Информация о фильме
Название: Крах
Оригинальное название: The Fall
Год выхода: 2014
Жанр: триллер, драма
Режиссер: Аллан Кабитт, Якоб Вербрюгген

В ролях: Джиллиан Андерсон, Джейми Дорнан, Брона Во, Джон Линч, Ниам МакГрэйди, Стюарт Грэхэм, Герард МакКарти, Йен МакЭлхинни, Юджин О’Харе, Лаура Доннелли

О фильме: Действие разворачивается в городе Белфаст в Северной Ирландии. Местное население здесь терроризирует серийный убийца, и городская полиция никак не может вычислить этого маньяка. Детектив Стелла Гибсон берется разобраться в этом загадочном мрачном деле.



Страна: Великобритания
Студия: Fables Limited, Artists Studio, BBC Northern Ireland
Продолжительность: ~00:59:00 серия
Перевод: Любительский (многоголосый закадровый) Jaskier

Файл
Кодек: XviD / MP3
Качество: HDTVRip
Видео: MPEG4, XviD, 720x400 (16:9), 25.000 fps, 1 500 Kbps (0.208 bit/pixel)
Звук: MP3, 44.1 KHz, 2 ch, 128 Kbps, CBR

АНОНСЫ ПОПУЛЯРНЫХ РАЗДАЧ


29.12.2014 г. торрент обновлён, добавлена 6-я серия!
General
Complete name : /Крах.S02/KPaX.S02E01.Jaskier.HDTVRip.avi
Format : AVI
Format/Info : Audio Video Interleave
File size : 693 MiB
Duration : 59mn 12s
Overall bit rate : 1 638 Kbps
Writing application : VirtualDubMod 1.5.10.2 (build 2540/release)
Writing library : VirtualDubMod build 2540/release

Video
ID : 0
Format : MPEG-4 Visual
Format profile : Advanced Simple@L5
Format settings, BVOP : 2
Format settings, QPel : No
Format settings, GMC : No warppoints
Format settings, Matrix : Default (MPEG)
Codec ID : XVID
Codec ID/Hint : XviD
Duration : 59mn 12s
Bit rate : 1 500 Kbps
Width : 720 pixels
Height : 400 pixels
Display aspect ratio : 16:9
Frame rate : 25.000 fps
Color space : YUV
Chroma subsampling : 4:2:0
Bit depth : 8 bits
Scan type : Progressive
Compression mode : Lossy
Bits/(Pixel*Frame) : 0.208
Stream size : 635 MiB (92%)
Writing library : XviD 1.2.1 (UTC 2008-12-04)

Audio
ID : 1
Format : MPEG Audio
Format version : Version 1
Format profile : Layer 3
Codec ID : 55
Codec ID/Hint : MP3
Duration : 59mn 12s
Bit rate mode : Constant
Bit rate : 128 Kbps
Channel(s) : 2 channels
Sampling rate : 44.1 KHz
Compression mode : Lossy
Stream size : 54.2 MiB (8%)
Alignment : Split accross interleaves
Interleave, duration : 40 ms (1.00 video frame)
Interleave, preload duration : 500 ms



Скачать Крах.The.Fall.(снзон.02).(Аллан.Кабитт.Якоб.Вербрюгген).[2014.триллер.драма.HDTVRip].[MVO.(Jaskier)].torrent без регистрации
Золото ЗОЛОТАЯ РАЗДАЧА! СКАЧАННОЕ НЕ ЗАСЧИТЫВАЕТСЯ! Золото
Дата: Зарегистрирован   [ Тип: внутренний ] Как тут cкачать?
MAGNET ссылка
MAGNET ссылка


Скачать .torrent

24 KB

Статус: проверено DHT
Скачан: торрент - 134 раз, раздача полностью - 50 раз
Размер: 4,62 GB
Оценка:  - (Голосов: 0)
Поблагодарили: 1
Поделиться ссылкой на эту раздачу с друзьями:
В контактеFacebookОдноклассникиTwitterLivejournalМой МирLiveinternet
 

 

МихаНЕзатор

[] 

Раздача обновлена.
 
Показать сообщения:    


Вы не можете начинать темы
Вы не можете отвечать на сообщения
Вы не можете редактировать свои сообщения
Вы не можете удалять свои сообщения
Вы не можете голосовать в опросах
Вы не можете прикреплять файлы к сообщениям
Вы можете скачивать файлы