Loading...
Error

Скачать Колосс Родосский / Il colosso di Rodi (Серджио Леоне) [1961, драма, приключения, военный, история, BDRip-AVC] [VO]+[Оригинал] торрент без регистрации

 
Статистика раздачи
Размер:  3,79 GB   |    Скачан:  118 раз
Сидов:  1  [  0 KB/s  ]  
 
Автор Сообщение

Marsianka

[] 

Колосс Родосский / The Colossus of Rhodes / Il colosso di Rodi (1961) BDRip-AVC
от
HQCLUB



Информация о фильме:
Название: Колосс Родосский
Оригинальное название: Il colosso di Rodi
Год выхода: 1961
Жанр: драма, приключения, военный, история
Режиссер: Серджио Леоне / Sergio Leone
В ролях: Рори Кэлхун, Леа Массари, Жорж Маршаль, Конрадо Сан Мартин, Анхель Аранда, Мэйбл Карр, Миммо Пальмара, Роберто Камардьель, Альфио Кальтабиано, Жорж Риго

О фильме: Действие картины происходит на острове Родос во II веке до нашей эры. На острове безраздельно царит тиран Ксеркс, окруженный льстивыми предателями-придворными. Немногие честные люди вынуждены скрываться, в противном случае их ожидает тюрьма.

В это время на Родос приезжает афинянин Дарио и сразу оказывается вовлеченным в подготовку мятежа против Ксеркса, который планируется осуществить в день торжественного открытия статуи Колосса Родосского. Заговорщики планируют использовать статую в осуществлении своих дерзких планов…

И сами боги Олимпа идут им навстречу: в день мятежа разражается буря, и статуя рушится, погребая под своими обломками тиранию Ксеркса.

«A Monster Statue Of Bronze And Stone Twenty Stories Tall Guarded Their Secret!»




Релиз от -
Автор рипа: Elheym

Выпущено: Испания, Италия, Франция, CFPC (Comptoir Français de Productions Cinématographiques), Cine-Produzioni Associate, CTI (Cinema Television International), Procusa, Produzioni Atlas Consorziate (P.A.C.)
Продолжительность: 02:23:00
Перевод : Профессиональный (одноголосый, закадровый)
Оригинальная аудио дорожка: итальянский
Субтитры: нет
Главы: присутствуют, сохранены оригинальные

Файл:
Формат: MKV
Качество: BDRip-AVC (источник: / Blu-ray Remux / 1080p)
Видео: 1080x460 (2.35:1), 24.0 fps, MPEG-4 AVC, ~3338 kbps avg, 0.280 bit/pixel
Аудио #1: 48 kHz, AC3 Dolby Digital, 2/0 (L,R) ch, ~192 kbps avg (VO)
Аудио #2: 48 kHz, AC3 Dolby Digital, 2/0 (L,R) ch, ~192 kbps avg (ITA)
Размер: 3.79 GB
Сэмпл: скачать

Уникальный идентификатор : 241793924999904351737923381289015978002 (0xB5E7D0E8D67DB6B8805A4E3BE04E2812)
Полное имя : The.Colossus.of.Rhodes.1961.DUAL.BDRip-AVC.x264.AC3.-HQCLUB.mkv
Формат : Matroska
Версия формата : Version 2
Размер файла : 3,79 Гбайт
Продолжительность : 2 ч. 23 м.
Общий поток : 3797 Кбит/сек
Дата кодирования : UTC 2014-12-10 18:21:36
Программа кодирования : mkvmerge v5.2.0 ('I can't explain') built on Dec 18 2011 18:12:03
Библиотека кодирования : libebml v1.2.3 + libmatroska v1.3.0

Видео
Идентификатор : 1
Формат : AVC
Формат/Информация : Advanced Video Codec
Профиль формата : High@L4.1
Параметр CABAC формата : Да
Параметр ReFrames формата : 13 кадров
Идентификатор кодека : V_MPEG4/ISO/AVC
Продолжительность : 2 ч. 23 м.
Битрейт : 3338 Кбит/сек
Ширина : 1080 пикселей
Высота : 460 пикселей
Соотношение сторон : 2,35:1
Режим частоты кадров : Постоянный
Частота кадров : 24,000 кадра/сек
Цветовое пространство : YUV
Субдискретизация насыщенности : 4:2:0
Битовая глубина : 8 бит
Тип развёртки : Прогрессивная
Бит/(Пиксели*Кадры) : 0.280
Размер потока : 3,33 Гбайт (88%)
Заголовок : Колосс Родосский / The Colossus of Rhodes / Il colosso di Rodi (1961) BDRip-AVC by HQCLUB [Elheym]
Библиотека кодирования : x264 core 142 r2491kMod 24e4fed
Настройки программы : cabac=1 / ref=13 / deblock=1:-3:-2 / analyse=0x3:0x133 / me=umh / subme=11 / psy=1 / fade_compensate=0.00 / psy_rd=1.00:0.00 / mixed_ref=1 / me_range=32 / chroma_me=1 / trellis=2 / 8x8dct=1 / cqm=0 / deadzone=21,11 / fast_pskip=0 / chroma_qp_offset=-4 / threads=5 / lookahead_threads=1 / sliced_threads=0 / nr=0 / decimate=1 / interlaced=0 / bluray_compat=0 / constrained_intra=0 / fgo=0 / bframes=9 / b_pyramid=2 / b_adapt=2 / b_bias=0 / direct=3 / weightb=1 / open_gop=0 / weightp=2 / keyint=230 / keyint_min=23 / scenecut=40 / intra_refresh=0 / rc_lookahead=40 / rc=crf / mbtree=0 / crf=17.4000 / qcomp=0.70 / qpmin=0 / qpmax=69 / qpstep=4 / vbv_maxrate=50000 / vbv_bufsize=62500 / crf_max=0.0 / nal_hrd=none / filler=0 / ip_ratio=1.40 / pb_ratio=1.30 / aq=2:0.90
Язык : Italian
Default : Да
Forced : Нет

Аудио #1
Идентификатор : 2
Формат : AC-3
Формат/Информация : Audio Coding 3
Расширение режима : CM (complete main)
Параметр Endianness формата : Big
Идентификатор кодека : A_AC3
Продолжительность : 2 ч. 23 м.
Вид битрейта : Постоянный
Битрейт : 192 Кбит/сек
Каналы : 2 канала
Расположение каналов : Front: L R
Частота : 48,0 КГц
Битовая глубина : 16 бит
Метод сжатия : С потерями
Размер потока : 196 Мбайт (5%)
Заголовок : АС3 2.0 @ 192 kbps - VO
Язык : Russian
Default : Нет
Forced : Нет

Аудио #2
Идентификатор : 3
Формат : AC-3
Формат/Информация : Audio Coding 3
Расширение режима : CM (complete main)
Параметр Endianness формата : Big
Идентификатор кодека : A_AC3
Продолжительность : 2 ч. 23 м.
Вид битрейта : Постоянный
Битрейт : 192 Кбит/сек
Каналы : 2 канала
Расположение каналов : Front: L R
Частота : 48,0 КГц
Битовая глубина : 16 бит
Метод сжатия : С потерями
Размер потока : 196 Мбайт (5%)
Заголовок : АС3 2.0 @ 192 kbps - Original
Язык : Italian
Default : Нет
Forced : Нет

Меню
00:00:00.000 : :Chapter 01
00:05:03.916 : :Chapter 02
00:11:01.415 : :Chapter 03
00:13:09.915 : :Chapter 04
00:21:09.916 : :Chapter 05
00:27:55.916 : :Chapter 06
00:31:12.541 : :Chapter 07
00:39:04.625 : :Chapter 08
00:53:26.333 : :Chapter 09
00:58:56.083 : :Chapter 10
01:05:22.708 : :Chapter 11
01:17:03.250 : :Chapter 12
01:22:40.625 : :Chapter 13
01:37:15.166 : :Chapter 14
01:41:56.916 : :Chapter 15
01:51:59.625 : :Chapter 16
01:58:40.791 : :Chapter 17
02:03:09.833 : :Chapter 18
02:10:31.666 : :Chapter 19
02:13:46.583 : :Chapter 20
02:22:59.833 : :Chapter 21

x264 [info]: frame I:1307 Avg QP:15.92 size: 75178
x264 [info]: frame P:38489 Avg QP:17.25 size: 34486
x264 [info]: frame B:166129 Avg QP:19.69 size: 13443

x264 [info]: consecutive B-frames: 0.9% 0.5% 3.1% 13.1% 12.7% 61.3% 5.0% 1.1% 1.6% 0.7%

x264 [info]: ref P L0: 38.3% 9.7% 17.8% 7.0% 6.4% 4.4% 4.3% 2.3% 2.4% 1.9% 2.0% 1.6% 1.8% 0.2% 0.0%
x264 [info]: ref B L0: 75.0% 10.5% 4.5% 2.5% 1.8% 1.6% 1.2% 0.8% 0.7% 0.7% 0.4% 0.2%
x264 [info]: ref B L1: 94.4% 5.6%



Скачать Колосс.Родосский.Il.colosso.di.Rodi.(Серджио.Леоне).[1961.драма.приключения.военный.история.BDRip-AVC].[VO]+[Оригинал].torrent без регистрации
Золото ЗОЛОТАЯ РАЗДАЧА! СКАЧАННОЕ НЕ ЗАСЧИТЫВАЕТСЯ! Золото
Дата: Зарегистрирован   [ Тип: внутренний ] Как тут cкачать?
MAGNET ссылка
MAGNET ссылка


Скачать .torrent

20 KB

Статус: проверено DHT
Скачан: торрент - 118 раз, раздача полностью - 2 раз
Размер: 3,79 GB
Оценка:  - (Голосов: 0)
Поблагодарили: 1
Поделиться ссылкой на эту раздачу с друзьями:
В контактеFacebookОдноклассникиTwitterLivejournalМой МирLiveinternet
 

 
Показать сообщения:    


Вы не можете начинать темы
Вы не можете отвечать на сообщения
Вы не можете редактировать свои сообщения
Вы не можете удалять свои сообщения
Вы не можете голосовать в опросах
Вы не можете прикреплять файлы к сообщениям
Вы можете скачивать файлы