Loading...
Error

Скачать Все без ума от Мэри / There's Something About Mary (Бобби Фаррелли, Питер Фаррелли) [1998, мелодрама, комедия, BDRip-AVC] [Режиссерская версия] [Dub]+[Sub]x3 торрент без регистрации

 
Статистика раздачи
Размер:  2,9 GB   |    Скачан:  109 раз
Сидов:  1  [  0 KB/s  ]  
 
Автор Сообщение

Marsianka

[] 

Все без ума от Мэри
| There's Something About Mary |


Информация о фильме
Название: Все без ума от Мэри
Оригинальное название: There's Something About Mary
Год выхода: 1998
Жанр: мелодрама, комедия
Режиссер: Бобби Фаррелли, Питер Фаррелли
В ролях: Кэмерон Диаз, Мэтт Диллон, Бен Стиллер, Ли Эванс, Крис Эллиотт, Лин Шэй, Джеффри Тэмбор, Марки Пост, Кит Дэвид, Сара Силверман, Ханди Александер, Марни Алексенбург, Дэнни Мерфи, Ричард Тайсон, Роб Моран, Джеки Флинн, Хиллари Мэтьюз, Уилли Гарсон, Дэвид Шакелфорд, Дэйв Горил, Лори Глик, Джеффри П. Лернер, Кори Пендергаст, Уоррен Ташьян, Келли Рорк, Херби Флинн, Кэрил Уэст, Кен Роджерсон, Брэд Бланк, Стив Суини, Синди Оливер, Уилл Кугэн, Стив Тайлер, Морин Гриффин, Доки, Мэриан Фаррелли, Джонатан Ричман, Томми Ларкинс, Ленни Кларк, Дэниэл Грин, Майкл Бадж, Джеймс Гиффорд, Шон Гилди, Зен Геснер, Трэйси Энн Джорд

О фильме:
Все началось 13 лет назад с ущемленного «достоинства» Теда, хронического неудачника, постоянно ставящего себя в комические ситуации: он настолько труслив, что способен вывести из себя собственного психиатра, настолько нелеп, что способен в самый ответственный момент прищемить свое мужское достоинство брючной молнией. Этому недотепе не особенно везет в жизни, но зато однажды повезло в любви: когда ему было 17, он встретил Мэри. Они собирались на школьную вечеринку, но тут как раз и произошел неприятный случай с молнией, положивший конец их роману. И вот, спустя 13 лет, Тед нанимает частного детектива Пэта для розыска женщины своей мечты. Мэри обладает фантастическим даром очаровывать всех окружающих ее мужчин. Ее шарм и обаяние заставляют их бросаться в бескомпромиссную борьбу за сердце красавицы…



Страна: США
Студия: 20th Century Fox Film Corporation
Продолжительность: 02:10:41
Перевод: Дублированный

Файл
Кодек: h.264
Качество: BDRip-AVC
Видео: 2401 Кбит/с, 1024x556, 23.976 кадр/c
• №1: Русский (AC3, 6 ch, 384 Кбит/с) Дублированный
• №2: Английский (AC3, 6 ch, 384 Кбит/с)

Субтитры: Русские (форсированные, на непереведенные места режиссерской версии), русские (полные), английские

--------------------------------------------------------------------------------------------------------------
x264 [info]: frame I:1216 Avg QP:17.57 size: 82625
x264 [info]: frame P:39874 Avg QP:20.44 size: 25626
x264 [info]: frame B:146913 Avg QP:21.90 size: 8382
x264 [info]: consecutive B-frames: 1.6% 2.1% 8.7% 18.0% 16.2% 44.9% 5.6% 1.4% 0.7% 0.3% 0.1% 0.3% 0.1%
--------------------------------------------------------------------------------------------------------------

Полное имя : Theres.Something.About.Mary.-D.C.-1998.x264.BDRip-AVC.0ptimus.mkv
Формат : Matroska
Версия формата : Version 2
Размер файла : 2,90 Гбайт
Продолжительность : 2 ч. 10 м.
Общий поток : 3172 Кбит/сек
Название фильма : Все без ума от Мэри | There's Something About Mary (Director's Cut) [1998] -= BDRip (AVC) by 0ptimus=-
Дата кодирования : UTC 2014-05-21 14:20:03
Программа кодирования : mkvmerge v6.6.0 ('The Edge Of The In Between') built on Dec 1 2013 17:55:00
Библиотека кодирования : libebml v1.3.0 + libmatroska v1.4.1

Видео
Идентификатор : 1
Формат : AVC
Формат/Информация : Advanced Video Codec
Профиль формата : High@L4.1
Параметр CABAC формата : Да
Параметр ReFrames формата : 9 кадров
Идентификатор кодека : V_MPEG4/ISO/AVC
Продолжительность : 2 ч. 10 м.
Битрейт : 2401 Кбит/сек
Ширина : 1024 пикселя
Высота : 556 пикселей
Соотношение сторон : 1,85:1
Режим частоты кадров : Постоянный
Частота кадров : 23,976 кадра/сек
Цветовое пространство : YUV
Субдискретизация насыщенности : 4:2:0
Битовая глубина : 8 бит
Тип развёртки : Прогрессивная
Бит/(Пиксели*Кадры) : 0.176
Размер потока : 2,14 Гбайт (74%)
Заголовок : Rip by 0ptimus
Библиотека кодирования : x264 core 133 r2334 a3ac64b
Настройки программы : cabac=1 / ref=9 / deblock=1:-3:-3 / analyse=0x3:0x113 / me=umh / subme=11 / psy=1 / psy_rd=1.00:0.20 / mixed_ref=1 / me_range=32 / chroma_me=1 / trellis=2 / 8x8dct=1 / cqm=0 / deadzone=21,11 / fast_pskip=0 / chroma_qp_offset=-3 / threads=4 / lookahead_threads=1 / sliced_threads=0 / nr=0 / decimate=0 / interlaced=0 / bluray_compat=0 / constrained_intra=0 / bframes=12 / b_pyramid=2 / b_adapt=2 / b_bias=0 / direct=3 / weightb=1 / open_gop=0 / weightp=2 / keyint=240 / keyint_min=23 / scenecut=40 / intra_refresh=0 / rc_lookahead=40 / rc=2pass / mbtree=0 / bitrate=2401 / ratetol=1.0 / qcomp=0.60 / qpmin=0 / qpmax=69 / qpstep=4 / cplxblur=20.0 / qblur=0.5 / vbv_maxrate=50000 / vbv_bufsize=50000 / nal_hrd=none / ip_ratio=1.40 / pb_ratio=1.30 / aq=1:1.00
Язык : English
Default : Да
Forced : Да

Аудио #1
Идентификатор : 2
Формат : AC-3
Формат/Информация : Audio Coding 3
Расширение режима : CM (complete main)
Параметр Endianness формата : Big
Идентификатор кодека : A_AC3
Продолжительность : 2 ч. 10 м.
Вид битрейта : Постоянный
Битрейт : 384 Кбит/сек
Каналы : 6 каналов
Расположение каналов : Front: L C R, Side: L R, LFE
Частота : 48,0 КГц
Битовая глубина : 16 бит
Метод сжатия : С потерями
Размер потока : 359 Мбайт (12%)
Заголовок : Дублированный AC3 5.1 @ 384 kbps
Язык : Russian
Default : Да
Forced : Да

Аудио #2
Идентификатор : 3
Формат : AC-3
Формат/Информация : Audio Coding 3
Расширение режима : CM (complete main)
Параметр Endianness формата : Big
Идентификатор кодека : A_AC3
Продолжительность : 2 ч. 10 м.
Вид битрейта : Постоянный
Битрейт : 384 Кбит/сек
Каналы : 6 каналов
Расположение каналов : Front: L C R, Side: L R, LFE
Частота : 48,0 КГц
Битовая глубина : 16 бит
Метод сжатия : С потерями
Размер потока : 359 Мбайт (12%)
Заголовок : AC3 5.1 @ 384 kbps
Язык : English
Default : Нет
Forced : Нет

Текст #1
Идентификатор : 4
Формат : UTF-8
Идентификатор кодека : S_TEXT/UTF8
Идентификатор кодека/Информация : UTF-8 Plain Text
Заголовок : Форсированные [на непереведенные места]
Язык : Russian
Default : Да
Forced : Да

Текст #2
Идентификатор : 5
Формат : UTF-8
Идентификатор кодека : S_TEXT/UTF8
Идентификатор кодека/Информация : UTF-8 Plain Text
Язык : Russian
Default : Нет
Forced : Нет

Текст #3
Идентификатор : 6
Формат : UTF-8
Идентификатор кодека : S_TEXT/UTF8
Идентификатор кодека/Информация : UTF-8 Plain Text
Язык : English
Default : Нет
Forced : Нет

Меню
00:00:00.000 : en:Main Titles
00:02:54.591 : en:Her Name Was Mary...
00:09:46.419 : en:Prom Night
00:13:41.112 : en:Franks & Beans
00:19:27.124 : en:13 Years Later
00:24:38.894 : en:A Hell of a Bloodhound
00:26:15.824 : en:All About Mary
00:38:39.901 : en:White Trash in a Wheelchair
00:42:02.770 : en:Miami Bound
00:45:05.870 : en:The Architect From Nepal
00:48:47.049 : en:She's Still a Fox!
00:51:50.566 : en:The Puffy Problem
00:56:02.359 : en:Tucker
00:59:06.042 : en:The Hitchhiker
01:06:15.179 : en:The Carolina Cops
01:09:04.724 : en:The Real Healy
01:19:10.913 : en:Ted From Rhode Island
01:24:25.977 : en:The Psycho Killer
01:28:41.733 : en:Cleaning the Pipes
01:30:26.296 : en:The Name's Norm...
01:32:58.489 : en:A Date with Mary
01:40:12.882 : en:Benji on Speed
01:44:39.231 : en:A Good Team
01:47:35.199 : en:An Anonymous Letter
01:54:13.388 : en:Woogie?
01:56:53.798 : en:We're All in Love with Mary
01:59:04.721 : en:The Old Boyfriend
02:01:08.636 : en:A 'niners Fan
02:03:56.888 : en:That's My Girl...
02:04:39.222 : en:End Titles ("Buile Me Up Buttercup")
Релиз от:



Скачать Все.без.ума.от.Мэри.There's.Something.About.Mary.(Бобби.Фаррелли.Питер.Фаррелли).[1998.мелодрама.комедия.BDRip-AVC].[Режиссерская.версия].[Dub]+[Sub]x3.torrent без регистрации
Золото ЗОЛОТАЯ РАЗДАЧА! СКАЧАННОЕ НЕ ЗАСЧИТЫВАЕТСЯ! Золото
Дата: Зарегистрирован   [ Тип: внутренний ] Как тут cкачать?
MAGNET ссылка
MAGNET ссылка


Скачать .torrent

30 KB

Статус: проверено DHT
Скачан: торрент - 109 раз, раздача полностью - 6 раз
Размер: 2,9 GB
Оценка:  - (Голосов: 0)
Поблагодарили: 1
Поделиться ссылкой на эту раздачу с друзьями:
В контактеFacebookОдноклассникиTwitterLivejournalМой МирLiveinternet
 

 
Показать сообщения:    


Вы не можете начинать темы
Вы не можете отвечать на сообщения
Вы не можете редактировать свои сообщения
Вы не можете удалять свои сообщения
Вы не можете голосовать в опросах
Вы не можете прикреплять файлы к сообщениям
Вы можете скачивать файлы