Loading...
Error

Скачать Верный шанс / Выстрел в банке / Bank Shot (Гауэр Чемпион / Gower Champion) [1974, криминальная комедия, HDTVRip] [DVO] (НТВ+) торрент без регистрации

 
Статистика раздачи
Размер:  1,36 GB   |    Скачан:  114 раз
Сидов:  1  [  0 KB/s  ]  
 
Автор Сообщение

leon030982

[] 

Верный шанс / Выстрел в банке / Bank Shot


Год выпуска: 1974
Страна: США
Жанр: криминальная комедия
Продолжительность: 01:20:05
Перевод: Профессиональный (двухголосый, закадровый) (НТВ+)
Cубтитры: нет

Режиссер: Гауэр Чемпион / Gower Champion

В ролях: Джордж К. Скотт. Джоанна Кэссиди. Соррел Бук, Дж. Вуд, Клифтон Джеймс, Боб Бэлабан, Биби Остервальд, Фрэнк МакРей, Дон Кэлфа, Харви Эванс

Описание: Фильм по роману Donald E. Westlake Горячие скалы, которая в 1972 году стала хитом.
Главари банды воров, затеяли ограбить банк, благо представился случай, что банк временно был перенесен в небольшой мобильный дом, а само здание банка построят заново, но что делать если лучший специалист по ограблению Джордж Скотт находится в тюрьме, они помогают ему совершить побег. Скотт сбегает из тюрьмы, с головокружительными погонями прямо с карьера на строительной технике, он мчит к месту встречи с девушкой, где он переодевается в байкера и уезжает на мотоцикле. Скотт решил не мелочится, зачем ему мешки с деньгами, когда можно взять сразу банк целиком, при помощи конструкции подъемника, в глухую ночь поднимает этот дом-банк и увозит его на стоянку трейлеров...... Фильм не дает скучать зрителю ни на минуту, в фильме изобилуют погони, приключения. (Ledy_X)


Релиз

Качество: HDTVRip
Формат: AVI
Видео: 720x400 (1.80:1), 25 fps, XviD build 50 ~2236 kbps avg, 0.31 bit/pixel
Аудио: 48 kHz, AC3 Dolby Digital, 2/0 (L,R) ch, ~192 kbps

Цитата:

Дорожка взята с релиза Valeronius

За предоставленный рип благодарим Ledy_X
Выстрел в банке - Bank Shot fix.avi
Format : AVI
Format/Info : Audio Video Interleave
File size : 1.36 GiB
Duration : 1h 20mn
Overall bit rate : 2 439 Kbps
Writing application : VirtualDubMod 1.5.10.2 (build 2540/release)
Writing library : VirtualDubMod build 2540/release
Video
ID : 0
Format : MPEG-4 Visual
Format profile : Advanced Simple@L5
Format settings, BVOP : 1
Format settings, QPel : No
Format settings, GMC : No warppoints
Format settings, Matrix : Custom
Codec ID : DX50
Codec ID/Hint : DivX 5
Duration : 1h 20mn
Bit rate : 2 237 Kbps
Width : 720 pixels
Height : 400 pixels
Display aspect ratio : 16:9
Frame rate : 25.000 fps
Color space : YUV
Chroma subsampling : 4:2:0
Bit depth : 8 bits
Scan type : Progressive
Compression mode : Lossy
Bits/(Pixel*Frame) : 0.311
Stream size : 1.25 GiB (92%)
Writing library : XviD 1.2.1 (UTC 2008-12-04)
Audio
ID : 1
Format : AC-3
Format/Info : Audio Coding 3
Mode extension : CM (complete main)
Format settings, Endianness : Big
Codec ID : 2000
Duration : 1h 19mn
Bit rate mode : Constant
Bit rate : 192 Kbps
Channel(s) : 2 channels
Channel positions : Front: L R
Sampling rate : 48.0 KHz
Bit depth : 16 bits
Compression mode : Lossy
Delay relative to video : 24ms
Stream size : 110 MiB (8%)
Alignment : Split accross interleaves
Interleave, duration : 40 ms (1.00 video frame)
Interleave, preload duration : 500 ms



Скачать Верный.шанс.Выстрел.в.банке.Bank.Shot.(Гауэр.Чемпион.Gower.Champion).[1974.криминальная.комедия.HDTVRip].[DVO].(НТВ+).torrent без регистрации
Золото ЗОЛОТАЯ РАЗДАЧА! СКАЧАННОЕ НЕ ЗАСЧИТЫВАЕТСЯ! Золото
Дата: Зарегистрирован   [ Тип: внутренний ] Как тут cкачать?
MAGNET ссылка
MAGNET ссылка


Скачать .torrent

14 KB

Статус: проверено DHT
Скачан: торрент - 114 раз, раздача полностью - 22 раз
Размер: 1,36 GB
Оценка:  - (Голосов: 0)
Поблагодарили: 0
Поделиться ссылкой на эту раздачу с друзьями:
В контактеFacebookОдноклассникиTwitterLivejournalМой МирLiveinternet
 

 
Показать сообщения:    


Вы не можете начинать темы
Вы не можете отвечать на сообщения
Вы не можете редактировать свои сообщения
Вы не можете удалять свои сообщения
Вы не можете голосовать в опросах
Вы не можете прикреплять файлы к сообщениям
Вы можете скачивать файлы