Loading...
Error

Скачать День животных / Day of the Animals (Уильям Гёрдлер) [1977, ужасы, фантастика, триллер, BDRip-AVC] [MVO]+[AVO]+[Оригинал] торрент без регистрации

 
Статистика раздачи
Размер:  3,5 GB   |    Скачан:  99 раз
Сидов:  1  [  0 KB/s  ]  
 
Автор Сообщение

Marsianka

[] 

День животных / Day of the Animals (1977) BDRip-AVC
от
HQCLUB



Информация о фильме:
Название: День животных
Оригинальное название: Day of the Animals
Год выхода: 1977
Жанр: ужасы, фантастика, триллер
Режиссер: Уильям Гёрдлер / William Girdler
В ролях: Кристофер Джордж, Лесли Нильсен, Линда Дэй Джордж, Ричард Джэкел, Майкл Ансара, Рут Роман, Джон Седар, Пол Манти, Уолтер Барнс, Эндрю Стивенс

О фильме: Разрушение озонового слоя пагубно повлияло на поведение животных, обитающих на высоте пяти тысяч футов. Это становится неприятным открытием для группы туристов, которых доставил в горы вертолет, прежде чем был объявлен карантин. Животные становятся агрессивными и начинают нападать на людей. Чтобы остаться в живых, путешественникам предстоит сражаться с обезумевшими представителями фауны…

«A shocking vision of things to come...»




Релиз от -
Автор рипа: Elheym

Выпущено: США, Film Ventures International (FVI), Mid-America Pictures, Montoro Productions Ltd.
Продолжительность: 01:37:38
Перевод 1: Профессиональный (многоголосый, закадровый), ТК Россия
Перевод 2: Авторский (одноголосый, закадровый), А. Дольский
Оригинальная аудиодорожка: английский
Субтитры: нет
Главы: присутствуют, сохранены оригинальные

Файл:
Формат: MKV
Качество: BDRip-AVC (источник: / Blu-ray Remux / 1080p)
Видео: 1068x456 (2.35:1), 23.976 fps, MPEG-4 AVC, ~3943 kbps avg, 0.338 bit/pixel

Размер: 3.50 GB
Сэмпл: скачать
Аудио #1: 48 kHz, AC3 Dolby Digital, 2/0 (L,R) ch, ~192 kbps avg (MVO.TK-ROSSIJA)
Аудио #2: 48 kHz, AC3 Dolby Digital, 3/2 (L,C,R,l,r) + LFE ch, ~448 kbps avg (AVO.DOLSKIJ)
Аудио #3: 48 kHz, AC3 Dolby Digital, 3/2 (L,C,R,l,r) + LFE ch, ~448 kbps avg (ENG)

Уникальный идентификатор : 182085304199457561000227526263734744690 (0x88FC5A9E5F23B012BC2E7DF60C9B3672)
Полное имя : Day.of.the.Animals.1977.TRIPLE.BDRip-AVC.x264.AC3.-HQCLUB.mkv
Формат : Matroska
Версия формата : Version 2
Размер файла : 3,50 Гбайт
Продолжительность : 1 ч. 37 м.
Общий поток : 5133 Кбит/сек
Дата кодирования : UTC 2014-12-11 20:59:04
Программа кодирования : mkvmerge v5.2.0 ('I can't explain') built on Dec 18 2011 18:12:03
Библиотека кодирования : libebml v1.2.3 + libmatroska v1.3.0

Видео
Идентификатор : 1
Формат : AVC
Формат/Информация : Advanced Video Codec
Профиль формата : High@L4.1
Параметр CABAC формата : Да
Параметр ReFrames формата : 13 кадров
Идентификатор кодека : V_MPEG4/ISO/AVC
Продолжительность : 1 ч. 37 м.
Битрейт : 3943 Кбит/сек
Ширина : 1068 пикселей
Высота : 456 пикселей
Соотношение сторон : 2,35:1
Режим частоты кадров : Постоянный
Частота кадров : 23,976 кадра/сек
Цветовое пространство : YUV
Субдискретизация насыщенности : 4:2:0
Битовая глубина : 8 бит
Тип развёртки : Прогрессивная
Бит/(Пиксели*Кадры) : 0.338
Размер потока : 2,69 Гбайт (77%)
Заголовок : День животных / Day of the Animals (1977) BDRip-AVC by HQCLUB [Elheym]
Библиотека кодирования : x264 core 142 r2491kMod 24e4fed
Настройки программы : cabac=1 / ref=13 / deblock=1:-3:-2 / analyse=0x3:0x133 / me=umh / subme=11 / psy=1 / fade_compensate=0.00 / psy_rd=1.04:0.00 / mixed_ref=1 / me_range=32 / chroma_me=1 / trellis=2 / 8x8dct=1 / cqm=0 / deadzone=21,11 / fast_pskip=0 / chroma_qp_offset=-4 / threads=6 / lookahead_threads=1 / sliced_threads=0 / nr=0 / decimate=0 / interlaced=0 / bluray_compat=0 / constrained_intra=0 / fgo=0 / bframes=12 / b_pyramid=2 / b_adapt=2 / b_bias=0 / direct=3 / weightb=1 / open_gop=0 / weightp=2 / keyint=230 / keyint_min=23 / scenecut=40 / intra_refresh=0 / rc_lookahead=40 / rc=crf / mbtree=0 / crf=18.4000 / qcomp=0.70 / qpmin=0 / qpmax=69 / qpstep=4 / vbv_maxrate=50000 / vbv_bufsize=62500 / crf_max=0.0 / nal_hrd=none / filler=0 / ip_ratio=1.40 / pb_ratio=1.30 / aq=2:0.90
Язык : English
Default : Да
Forced : Нет

Аудио #1
Идентификатор : 2
Формат : AC-3
Формат/Информация : Audio Coding 3
Расширение режима : CM (complete main)
Параметр Endianness формата : Big
Идентификатор кодека : A_AC3
Продолжительность : 1 ч. 37 м.
Вид битрейта : Постоянный
Битрейт : 192 Кбит/сек
Каналы : 2 канала
Расположение каналов : Front: L R
Частота : 48,0 КГц
Битовая глубина : 16 бит
Метод сжатия : С потерями
Размер потока : 134 Мбайт (4%)
Заголовок : АС3 2.0 @ 192 kbps - MVO, TK Rossija
Язык : Russian
Default : Нет
Forced : Нет

Аудио #2
Идентификатор : 3
Формат : AC-3
Формат/Информация : Audio Coding 3
Расширение режима : CM (complete main)
Параметр Endianness формата : Big
Идентификатор кодека : A_AC3
Продолжительность : 1 ч. 37 м.
Вид битрейта : Постоянный
Битрейт : 448 Кбит/сек
Каналы : 6 каналов
Расположение каналов : Front: L C R, Side: L R, LFE
Частота : 48,0 КГц
Битовая глубина : 16 бит
Метод сжатия : С потерями
Размер потока : 313 Мбайт (9%)
Заголовок : АС3 5.1 @ 448 kbps - AVO, Dolskij
Язык : Russian
Default : Нет
Forced : Нет

Аудио #3
Идентификатор : 4
Формат : AC-3
Формат/Информация : Audio Coding 3
Расширение режима : CM (complete main)
Параметр Endianness формата : Big
Идентификатор кодека : A_AC3
Продолжительность : 1 ч. 37 м.
Вид битрейта : Постоянный
Битрейт : 448 Кбит/сек
Каналы : 6 каналов
Расположение каналов : Front: L C R, Side: L R, LFE
Частота : 48,0 КГц
Битовая глубина : 16 бит
Метод сжатия : С потерями
Размер потока : 313 Мбайт (9%)
Заголовок : АС3 5.1 @ 448 kbps - Original
Язык : English
Default : Нет
Forced : Нет

Меню
00:00:00.000 : :Chapter 01
00:07:48.800 : :Chapter 02
00:13:49.410 : :Chapter 03
00:19:29.960 : :Chapter 04
00:27:31.900 : :Chapter 05
00:36:06.289 : :Chapter 06
00:44:54.565 : :Chapter 07
00:51:23.954 : :Chapter 08
00:57:41.958 : :Chapter 09
01:03:21.796 : :Chapter 10
01:09:43.429 : :Chapter 11
01:14:58.658 : :Chapter 12
01:16:12.234 : :Chapter 13
01:25:38.256 : :Chapter 14
01:31:57.677 : :Chapter 15
01:35:58.042 : :Chapter 16

x264 [info]: frame I:1135 Avg QP:17.38 size: 83001
x264 [info]: frame P:26535 Avg QP:18.83 size: 36983
x264 [info]: frame B:112779 Avg QP:20.98 size: 16713

x264 [info]: consecutive B-frames: 1.4% 1.1% 3.8% 14.7% 15.4% 45.7% 7.8% 2.6% 3.1% 1.0% 1.2% 1.7% 0.7%

x264 [info]: ref P L0: 38.9% 11.9% 17.0% 7.5% 5.9% 4.3% 3.8% 2.2% 2.0% 1.7% 1.6% 1.4% 1.4% 0.3% 0.0%
x264 [info]: ref B L0: 69.4% 12.3% 6.0% 3.2% 2.4% 1.9% 1.6% 1.0% 0.9% 0.8% 0.4% 0.2%
x264 [info]: ref B L1: 91.5% 8.5%



Скачать День.животных.Day.of.the.Animals.(Уильям.Гёрдлер).[1977.ужасы.фантастика.триллер.BDRip-AVC].[MVO]+[AVO]+[Оригинал].torrent без регистрации
Золото ЗОЛОТАЯ РАЗДАЧА! СКАЧАННОЕ НЕ ЗАСЧИТЫВАЕТСЯ! Золото
Дата: Зарегистрирован   [ Тип: внутренний ] Как тут cкачать?
MAGNET ссылка
MAGNET ссылка


Скачать .torrent

18 KB

Статус: проверено DHT
Скачан: торрент - 99 раз, раздача полностью - 5 раз
Размер: 3,5 GB
Оценка:  - (Голосов: 0)
Поблагодарили: 1
Поделиться ссылкой на эту раздачу с друзьями:
В контактеFacebookОдноклассникиTwitterLivejournalМой МирLiveinternet
 

 
Показать сообщения:    


Вы не можете начинать темы
Вы не можете отвечать на сообщения
Вы не можете редактировать свои сообщения
Вы не можете удалять свои сообщения
Вы не можете голосовать в опросах
Вы не можете прикреплять файлы к сообщениям
Вы можете скачивать файлы