Loading...
Error

Скачать Виридиана / Viridiana (Луис Бунюэль) [1961, драма, BDRip-AVC] [MVO]+[AVO]+[Sub]x3 торрент без регистрации

 
Статистика раздачи
Размер:  2,67 GB   |    Скачан:  106 раз
Сидов:  1  [  0 KB/s  ]  
 
Автор Сообщение

Marsianka

[] 

Информация о фильме
Название: Виридиана
Оригинальное название: Viridiana
Год выхода: 1961
Жанр: драма
Режиссер: Луис Бунюэль
В ролях: Сильвия Пиналь, Франсиско Рабаль, Фернандо Рей, Хосе Кальво, Маргарита Лосано, Хосе Мануэль Мартин, Виктория Дзинни, Луис Эредия, Хоакин Роа, Лола Гаос, Мария Исберт, Тереса Рабаль, Алисия Хорхе Баррига, Клаудио Брук, Хуан Гарсия Тиэндра, Пальмира Гуэрра, Хосе Мария Ладо, Хоакин Майоль, Серхио Мендисабаль, Нарсисо Охеда

О фильме: Дядя Виридианы, обеспечивший своей племяннице обучение, очень хочет видеть ее в своем замке до того, как она пострижется в монахини. На самом деле, дядя давно влюблен в свою племянницу. Эта cтрасть так потрясает Виридиану, что она принимает решение не возвращаться в монастырь.



Страна: Испания, Мексика
Студия: Films 59, Gustavo Alatriste, Union Industrial Cinematografica (UNINCI)
Продолжительность: 01:31:42
Перевод: Профессиональный многоголосый, авторский одноголосый

Файл
Кодек: MPEG-4 AVC
Качество: BDRip-AVC
Видео: 3500 Кбит/с, 1024х576, 24.000 кадр/с

Семпл
Аудио #1: Русский (AC3, 2 ch, 192 Кбит/с) / Профессиональный многоголосый (Синема Престиж)
Аудио #2: Русский (AC3, 2 ch, 192 Кбит/с) / Профессиональный многоголосый (Культура)
Аудио #3: Русский (AC3, 1 ch, 96 Кбит/с) / Авторский одноголосый (В. Огородников aka Лектор)
Аудио #4: Испанский (AC3, 2 ch, 192 Кбит/с)
Субтитры: Русские (2 вида), английские
Общее
Уникальный идентификатор : 206357743337386443133145403138584070384 (0x9B3F0E4355FFC89384E9794C785BC8F0)
Полное имя : H:1FilmsHРелизыViridiana.1961.x264.BDRip.AVC.MediaClub.mkv
Формат : Matroska
Версия формата : Version 4 / Version 2
Размер файла : 2,67 Гбайт
Продолжительность : 1 ч. 31 м.
Общий поток : 4175 Кбит/сек
Название фильма : -= MediaClub =- rip by Lefevr
Дата кодирования : UTC 2014-11-28 16:41:05
Программа кодирования : mkvmerge v6.1.0 ('Old Devil') built on Mar 4 2013 09:10:42
Библиотека кодирования : libebml v1.3.0 + libmatroska v1.4.0

Видео
Идентификатор : 1
Формат : AVC
Формат/Информация : Advanced Video Codec
Профиль формата : High@L4.1
Параметр CABAC формата : Да
Параметр ReFrames формата : 10 кадров
Идентификатор кодека : V_MPEG4/ISO/AVC
Продолжительность : 1 ч. 31 м.
Битрейт : 3500 Кбит/сек
Ширина : 1024 пикселя
Высота : 576 пикселей
Соотношение сторон : 16:9
Режим частоты кадров : Постоянный
Частота кадров : 24,000 кадра/сек
Цветовое пространство : YUV
Субдискретизация насыщенности : 4:2:0
Битовая глубина : 8 бит
Тип развёртки : Прогрессивная
Бит/(Пиксели*Кадры) : 0.247
Размер потока : 2,18 Гбайт (82%)
Заголовок : Viridiana.1961.x264.BDRip.AVC.MediaClub
Библиотека кодирования : x264 core 130 r2273 b3065e6
Настройки программы : cabac=1 / ref=10 / deblock=1:-3:-3 / analyse=0x3:0x133 / me=umh / subme=11 / psy=1 / psy_rd=1.00:0.25 / mixed_ref=1 / me_range=32 / chroma_me=1 / trellis=2 / 8x8dct=1 / cqm=0 / deadzone=21,11 / fast_pskip=0 / chroma_qp_offset=-4 / threads=6 / lookahead_threads=1 / sliced_threads=0 / nr=0 / decimate=0 / interlaced=0 / bluray_compat=0 / constrained_intra=0 / bframes=8 / b_pyramid=2 / b_adapt=2 / b_bias=0 / direct=3 / weightb=1 / open_gop=0 / weightp=2 / keyint=240 / keyint_min=23 / scenecut=40 / intra_refresh=0 / rc=2pass / mbtree=0 / bitrate=3500 / ratetol=1.0 / qcomp=0.60 / qpmin=0 / qpmax=69 / qpstep=4 / cplxblur=20.0 / qblur=0.5 / ip_ratio=1.40 / pb_ratio=1.30 / aq=1:1.00
Язык : Spanish
Default : Да
Forced : Да

Аудио #1
Идентификатор : 2
Формат : AC-3
Формат/Информация : Audio Coding 3
Расширение режима : CM (complete main)
Параметр Endianness формата : Big
Идентификатор кодека : A_AC3
Продолжительность : 1 ч. 31 м.
Вид битрейта : Постоянный
Битрейт : 192 Кбит/сек
Каналы : 2 канала
Расположение каналов : Front: L R
Частота : 48,0 КГц
Битовая глубина : 16 бит
Метод сжатия : С потерями
Размер потока : 126 Мбайт (5%)
Заголовок : TRACK_01_MVO_RUS_CinemaPrestige
Язык : Russian
Default : Да
Forced : Да

Аудио #2
Идентификатор : 3
Формат : AC-3
Формат/Информация : Audio Coding 3
Расширение режима : CM (complete main)
Параметр Endianness формата : Big
Идентификатор кодека : A_AC3
Продолжительность : 1 ч. 31 м.
Вид битрейта : Постоянный
Битрейт : 192 Кбит/сек
Каналы : 1 канал
Расположение каналов : Front: C
Частота : 48,0 КГц
Битовая глубина : 16 бит
Метод сжатия : С потерями
Размер потока : 126 Мбайт (5%)
Заголовок : TRACK_02_MVO_RUS_PifagorKultura
Язык : Russian
Default : Нет
Forced : Нет

Аудио #3
Идентификатор : 4
Формат : AC-3
Формат/Информация : Audio Coding 3
Расширение режима : CM (complete main)
Параметр Endianness формата : Big
Идентификатор кодека : A_AC3
Продолжительность : 1 ч. 31 м.
Вид битрейта : Постоянный
Битрейт : 96,0 Кбит/сек
Каналы : 1 канал
Расположение каналов : Front: C
Частота : 48,0 КГц
Битовая глубина : 16 бит
Метод сжатия : С потерями
Размер потока : 62,8 Мбайт (2%)
Заголовок : TRACK_03_AVO_RUS_Ogorodnikov
Язык : Russian
Default : Нет
Forced : Нет

Аудио #4
Идентификатор : 5
Формат : AC-3
Формат/Информация : Audio Coding 3
Расширение режима : CM (complete main)
Параметр Endianness формата : Big
Идентификатор кодека : A_AC3
Продолжительность : 1 ч. 31 м.
Вид битрейта : Постоянный
Битрейт : 192 Кбит/сек
Каналы : 2 канала
Расположение каналов : Front: L R
Частота : 48,0 КГц
Битовая глубина : 16 бит
Метод сжатия : С потерями
Размер потока : 126 Мбайт (5%)
Заголовок : TRACK_04_ORIGINAL_SPA
Язык : Spanish
Default : Нет
Forced : Нет

Текст #1
Идентификатор : 6
Формат : UTF-8
Идентификатор кодека : S_TEXT/UTF8
Идентификатор кодека/Информация : UTF-8 Plain Text
Заголовок : TEXT_01_SUB_RUS.srt
Язык : Russian
Default : Нет
Forced : Нет

Текст #2
Идентификатор : 7
Формат : UTF-8
Идентификатор кодека : S_TEXT/UTF8
Идентификатор кодека/Информация : UTF-8 Plain Text
Заголовок : TEXT_02_SUB_RUS.srt
Язык : Russian
Default : Нет
Forced : Нет

Текст #3
Идентификатор : 8
Формат : UTF-8
Идентификатор кодека : S_TEXT/UTF8
Идентификатор кодека/Информация : UTF-8 Plain Text
Заголовок : TEXT_03_SUB_ENG.srt
Язык : English
Default : Нет
Forced : Нет

Меню
00:00:00.000 : :1
00:08:41.000 : :2
00:18:16.240 : :3
00:27:11.000 : :4
00:35:51.000 : :5
00:45:14.480 : :6
00:55:36.239 : :7
01:02:28.000 : :8
01:11:16.240 : :9
01:21:37.000 : :10
01:31:09.000 : :11

...last pass...

x264.exe: --pass 2 --bitrate 3500 --preset veryslow --profile high --level 4.1 --ref 10 --deblock -3:-3 --merange 32 --no-fast-pskip --no-dct-decimate --psy-rd 1.00:0.25 --subme 11 --no-mbtree --keyint 240 --sar 1:1 --stats "E:1Films EРелизыViridiana11111.log" --output "E:1Films EРелизыViridiana11111.mkv" "F:Temp048.avs"

avs [info]: 1024x576p 1:1 @ 10000000/416667 fps (cfr)
x264 [info]: using SAR=1/1
x264 [info]: using cpu capabilities: MMX2 SSE2Fast SSSE3 SSE4.2 AVX
x264 [info]: profile High, level 4.1

x264 [info]: frame I:709 Avg QP:15.42 size: 87607
x264 [info]: frame P:36435 Avg QP:18.06 size: 33162
x264 [info]: frame B:94474 Avg QP:20.82 size: 11947
x264 [info]: consecutive B-frames: 5.4% 6.0% 13.0% 27.9% 21.5% 22.1% 2.7% 0.8% 0.6%
x264 [info]: mb I I16..4: 9.8% 59.5% 30.7%
x264 [info]: mb P I16..4: 0.8% 11.1% 3.1% P16..4: 27.9% 33.6% 15.7% 4.7% 0.7% skip: 2.3%
x264 [info]: mb B I16..4: 0.1% 1.3% 0.4% B16..8: 32.8% 25.0% 4.7% direct: 6.9% skip:28.9% L0:34.2% L1:40.8% BI:25.0%
x264 [info]: 8x8 transform intra:72.7% inter:36.2%
x264 [info]: direct mvs spatial:99.7% temporal:0.3%
x264 [info]: coded y,uvDC,uvAC intra: 91.9% 0.7% 0.6% inter: 28.2% 0.2% 0.1%
x264 [info]: i16 v,h,dc,p: 19% 6% 25% 50%
x264 [info]: i8 v,h,dc,ddl,ddr,vr,hd,vl,hu: 16% 9% 10% 8% 10% 12% 10% 13% 12%
x264 [info]: i4 v,h,dc,ddl,ddr,vr,hd,vl,hu: 13% 7% 6% 9% 14% 15% 12% 12% 12%
x264 [info]: i8c dc,h,v,p: 44% 55% 0% 0%
x264 [info]: Weighted P-Frames: Y:6.5% UV:0.1%
x264 [info]: ref P L0: 51.0% 12.3% 16.6% 5.0% 4.5% 2.9% 2.9% 1.5% 1.6% 1.4% 0.4% 0.0%
x264 [info]: ref B L0: 84.4% 8.2% 2.8% 1.5% 1.0% 0.9% 0.7% 0.4% 0.2%
x264 [info]: ref B L1: 96.3% 3.7%
x264 [info]: kb/s:3499.61
Релиз от: | Автор рипа:



Скачать Виридиана.Viridiana.(Луис.Бунюэль).[1961.драма.BDRip-AVC].[MVO]+[AVO]+[Sub]x3.torrent без регистрации
Золото ЗОЛОТАЯ РАЗДАЧА! СКАЧАННОЕ НЕ ЗАСЧИТЫВАЕТСЯ! Золото
Дата: Зарегистрирован   [ Тип: внутренний ] Как тут cкачать?
MAGNET ссылка
MAGNET ссылка


Скачать .torrent

14 KB

Статус: проверено DHT
Скачан: торрент - 106 раз, раздача полностью - 10 раз
Размер: 2,67 GB
Оценка:  - (Голосов: 0)
Поблагодарили: 1
Поделиться ссылкой на эту раздачу с друзьями:
В контактеFacebookОдноклассникиTwitterLivejournalМой МирLiveinternet
 

 
Показать сообщения:    


Вы не можете начинать темы
Вы не можете отвечать на сообщения
Вы не можете редактировать свои сообщения
Вы не можете удалять свои сообщения
Вы не можете голосовать в опросах
Вы не можете прикреплять файлы к сообщениям
Вы можете скачивать файлы