Loading...
Error

/ Two and a Half Men ( 12) ( , ) [2014, , , WEB-DL] [720p] DVO (Jimmy J.)

 
11,35 GB   |    :  184
1  [  0 KB/s  ]  
 

[] 





Two and a Half Men - Twelve Season
-


: 2014
:
:
: ~20
: ( ) Jimmy J.
: ,
: , , , , , , , , , .
: , "" , - , . ? , .. - .



:
:
: Seasonvar
: WEB-DL 720p
: MKV
: AVC
: AC3
: AVC, 1280x720, ~4700 kbps, 23.976 fps, 0.174 bit/pixel
#1: Russian 48 KHz, A3, 5.1 channels, 384 kbps DVO Jimmy J.
#2: Original 48 KHz, A3, 5.1 channels, 384 kbps
: Filyse



02.03.2015 . , 15-16- !

:

General
Unique ID : 226215631410244578704421794013346386912 (0xAA2F8BBC4F9409D0B3904C2B5A25D3E0)
Complete name : D:\Torrent\Complete\Two.and.a.Half.Men.S12.720p.WEB-DL.Jimmy.J\Two.and.a.Half.Men.S12E01.720p.WEB-DL.mkv
Format : Matroska
Format version : Version 4 / Version 2
File size : 728 MiB
Duration : 21mn 11s
Overall bit rate : 4 804 Kbps
Encoded date : UTC 2014-11-09 12:41:46
Writing application : mkvmerge v7.3.0 ('Nouages') 64bit built on Oct 22 2014 18:53:34
Writing library : libebml v1.3.0 + libmatroska v1.4.1
DURATION : 00:21:11.328000000
NUMBER_OF_FRAMES : 39729
NUMBER_OF_BYTES : 61023744
_STATISTICS_WRITING_APP : mkvmerge v7.3.0 ('Nouages') 64bit built on Oct 22 2014 18:53:34
_STATISTICS_WRITING_DATE_UTC : 2014-11-09 12:41:46
_STATISTICS_TAGS : BPS DURATION NUMBER_OF_FRAMES NUMBER_OF_BYTES
Video
ID : 1
Format : AVC
Format/Info : Advanced Video Codec
Format profile : High@L3.1
Format settings, CABAC : No
Format settings, ReFrames : 2 frames
Codec ID : V_MPEG4/ISO/AVC
Duration : 21mn 11s
Bit rate : 3 940 Kbps
Width : 1 280 pixels
Height : 718 pixels
Display aspect ratio : 16:9
Frame rate mode : Constant
Frame rate : 23.976 fps
Color space : YUV
Chroma subsampling : 4:2:0
Bit depth : 8 bits
Scan type : Progressive
Bits/(Pixel*Frame) : 0.179
Stream size : 597 MiB (82%)
Language : English
Default : No
Forced : No
Color primaries : BT.709
Transfer characteristics : BT.709
Matrix coefficients : BT.709
Audio #1
ID : 2
Format : AC-3
Format/Info : Audio Coding 3
Mode extension : CM (complete main)
Format settings, Endianness : Big
Codec ID : A_AC3
Duration : 21mn 11s
Bit rate mode : Constant
Bit rate : 384 Kbps
Channel(s) : 6 channels
Channel positions : Front: L C R, Side: L R, LFE
Sampling rate : 48.0 KHz
Bit depth : 16 bits
Compression mode : Lossy
Stream size : 58.2 MiB (8%)
Title : DVO Jimmy J
Language : Russian
Default : No
Forced : No
Audio #2
ID : 3
Format : AC-3
Format/Info : Audio Coding 3
Mode extension : CM (complete main)
Format settings, Endianness : Big
Codec ID : A_AC3
Duration : 21mn 11s
Bit rate mode : Constant
Bit rate : 384 Kbps
Channel(s) : 6 channels
Channel positions : Front: L C R, Side: L R, LFE
Sampling rate : 48.0 KHz
Bit depth : 16 bits
Compression mode : Lossy
Stream size : 58.2 MiB (8%)
Title : Original
Language : English
Default : No
Forced : No

! ; . , :
(1) ,
(2) ( ),
(3) , .
() ( - ), . , !
E , , .




....Two.and.a.Half.Men.(.12).(...).[2014...WEB-DL].[720p].DVO.(Jimmy.J.).torrent
  ! ! 
:   [ : ] c?
MAGNET
MAGNET


.torrent

30 KB

: DHT
: - 184 , - 74
: 11,35 GB
- (: 0)
: 0
:
 FacebookTwitterLivejournal Liveinternet
 

 
: