Loading...
Error

/ Two and a Half Men( 12) ( , ) [2014, , , WEB-DL] [400p] DVO (Jimmy J.)

 
5,32 GB   |    :  164
1  [  0 KB/s  ]  
 

[] 





Two and a Half Men - Twelve Season
-


: 2014
:
:
: ~20
: ( ) Jimmy J.
: ,
: , , , , , , , , , .
: , "" , - , . ? , .. - .



:
:
: Seasonvar

: WEB-DL 400p
: MKV
: AVC
: A3
: AVC, 720x400, ~1400 kbps, 23.976 fps, 0.205 bit/pixel
#1: Russian 48 KHz, AC3, 5.1 channels, 384 kbps DVO Jimmy J.
#2: Original 48 KHz, AC3, 5.1 channels, 384 kbps
: Filyse



02.03.2015 . , 15-16- !

:

General
Unique ID : 227315851338808854762392442997776150115 (0xAB0370C421A8E27291C7D247E6716E63)
Complete name : D:\Torrent\Complete\Two.and.a.Half.Men.S12.400p.WEB-DL.Jimmy.J\Two.and.a.Half.Men.S12E01.400p.WEB-DL.mkv
Format : Matroska
Format version : Version 4 / Version 2
File size : 341 MiB
Duration : 21mn 23s
Overall bit rate : 2 231 Kbps
Encoded date : UTC 2014-11-09 13:07:32
Writing application : mkvmerge v7.3.0 ('Nouages') 64bit built on Oct 22 2014 18:53:34
Writing library : libebml v1.3.0 + libmatroska v1.4.1
DURATION : 00:21:21.536000000
NUMBER_OF_FRAMES : 40048
NUMBER_OF_BYTES : 61513728
_STATISTICS_WRITING_APP : mkvmerge v7.3.0 ('Nouages') 64bit built on Oct 22 2014 18:53:34
_STATISTICS_WRITING_DATE_UTC : 2014-11-09 13:07:32
_STATISTICS_TAGS : BPS DURATION NUMBER_OF_FRAMES NUMBER_OF_BYTES
Video
ID : 1
Format : AVC
Format/Info : Advanced Video Codec
Format profile : Main@L3.0
Format settings, CABAC : Yes
Format settings, ReFrames : 1 frame
Codec ID : V_MPEG4/ISO/AVC
Duration : 21mn 23s
Bit rate : 1 418 Kbps
Width : 720 pixels
Height : 400 pixels
Display aspect ratio : 16:9
Frame rate mode : Constant
Frame rate : 23.976 fps
Color space : YUV
Chroma subsampling : 4:2:0
Bit depth : 8 bits
Scan type : Progressive
Bits/(Pixel*Frame) : 0.205
Stream size : 217 MiB (64%)
Writing library : x264 core 129
Encoding settings : cabac=1 / ref=1 / deblock=1:0:0 / analyse=0x1:0x131 / me=dia / subme=2 / psy=1 / psy_rd=1.00:0.00 / mixed_ref=0 / me_range=16 / chroma_me=1 / trellis=0 / 8x8dct=0 / cqm=0 / deadzone=21,11 / fast_pskip=1 / chroma_qp_offset=0 / threads=4 / lookahead_threads=1 / sliced_threads=0 / nr=0 / decimate=1 / interlaced=0 / bluray_compat=0 / constrained_intra=0 / bframes=0 / weightp=2 / keyint=250 / keyint_min=25 / scenecut=40 / intra_refresh=0 / rc_lookahead=40 / rc=abr / mbtree=1 / bitrate=1500 / ratetol=1.0 / qcomp=0.60 / qpmin=10 / qpmax=51 / qpstep=4 / ip_ratio=1.41 / aq=1:1.00
Default : Yes
Forced : No
DURATION : 00:21:23.533000000
NUMBER_OF_FRAMES : 30720
NUMBER_OF_BYTES : 234441720
_STATISTICS_WRITING_APP : mkvmerge v7.3.0 ('Nouages') 64bit built on Oct 22 2014 18:53:34
_STATISTICS_WRITING_DATE_UTC : 2014-11-09 13:07:32
_STATISTICS_TAGS : BPS DURATION NUMBER_OF_FRAMES NUMBER_OF_BYTES
Audio #1
ID : 2
Format : AC-3
Format/Info : Audio Coding 3
Mode extension : CM (complete main)
Format settings, Endianness : Big
Codec ID : A_AC3
Duration : 21mn 23s
Bit rate mode : Constant
Bit rate : 384 Kbps
Channel(s) : 6 channels
Channel positions : Front: L C R, Side: L R, LFE
Sampling rate : 48.0 KHz
Bit depth : 16 bits
Compression mode : Lossy
Stream size : 58.8 MiB (17%)
Default : Yes
Forced : No
DURATION : 00:21:23.584000000
NUMBER_OF_FRAMES : 40112
NUMBER_OF_BYTES : 61612032
_STATISTICS_WRITING_APP : mkvmerge v7.3.0 ('Nouages') 64bit built on Oct 22 2014 18:53:34
_STATISTICS_WRITING_DATE_UTC : 2014-11-09 13:07:32
_STATISTICS_TAGS : BPS DURATION NUMBER_OF_FRAMES NUMBER_OF_BYTES
Audio #2
ID : 3
Format : AC-3
Format/Info : Audio Coding 3
Mode extension : CM (complete main)
Format settings, Endianness : Big
Codec ID : A_AC3
Duration : 21mn 23s
Bit rate mode : Constant
Bit rate : 384 Kbps
Channel(s) : 6 channels
Channel positions : Front: L C R, Side: L R, LFE
Sampling rate : 48.0 KHz
Bit depth : 16 bits
Compression mode : Lossy
Stream size : 58.8 MiB (17%)
Title : Original
Language : English
Default : No
Forced : No

! ; . , :
(1) ,
(2) ( ),
(3) , .
() ( - ), . , !
E , , .




....Two.and.a.Half.Men(.12).(...).[2014...WEB-DL].[400p].DVO.(Jimmy.J.).torrent
  ! ! 
:   [ : ] c?
MAGNET
MAGNET


.torrent

28 KB

: DHT
: - 164 , - 31
: 5,32 GB
- (: 0)
: 0
:
 FacebookTwitterLivejournal Liveinternet
 

 
: