Loading...
Error

Скачать Свадьба / A Wedding (Роберт Олтман) [1978, комедия, сатира, DVDRip-AVC] [MVO]+[DVO]+[Sub]x3 торрент без регистрации

 
Статистика раздачи
Размер:  2,22 GB   |    Скачан:  96 раз

Полного источника не было: 20 минут

 
Автор Сообщение

Marsianka

[] 

Информация о фильме
Название: Свадьба
Оригинальное название: A Wedding
Год выхода: 1978
Жанр: комедия, сатира
Режиссер: Роберт Олтман / Robert Altman
В ролях:
Дези Арназ-младший / Desi Arnaz Jr. ... Dino Sloan Corelli (as Dezi Anaz, Jr.)
Кэрол Бернетт / Carol Burnett ... Katherine 'Tulip' Brenner
Джералдин Чаплин / Geraldine Chaplin ... Rita Billingsley
Говард Дафф / Howard Duff ... Dr. Jules Meecham
Миа Фэрроу / Mia Farrow ... Elizabeth 'Buffy' Brenner
Витторио Гассман / Vittorio Gassman ... Luigi Corelli
Лиллиан Гиш / Lillian Gish ... Nettie Sloan
Нина Ван Палландт / Nina Van Pallandt ... Regina Sloan Corelli
Джон Кромвель / John Cromwell ... Bishop Martin

О фильме:
Венчание Маффин и Дино планируется как грандиозный праздник для всей семьи. И если бы не старый священник, не твердо помнящий слова ритуала, не беспокойство обоих семейств в связи с возникшими сомненьями в итальянских корнях Корелли, если бы не слишком рьяный охранник, и не бабушка Дино, собравшаяся на тот свет одновременно с началом свадебного приема. А так – отличный был бы праздник!...


Страна: США
Студия: Lion's Gate Films
Продолжительность: 02:04:56.031
Перевод: Профессиональный (многоголосый, закадровый) Петербург 5 канал
Профессиональный (двухголосый, закадровый) студия NLS
Язык фильма: английский (преимущ.) + немного итальянский

Исходник R1 DVD9

Файл
Кодек: h.264
Качество: DVDRip-AVC
Видео: 704x352 (2.35:1) @ 828x352 (анаморф), 23.976 fps, AVC, ~2096 Kbps, 0.353 bits/pixel
Русский, 48.0 KHz, AC3, 2 ch, 128 Kbps Петербург 5 канал
Русский, 48.0 KHz, AC3, 2 ch, 128 Kbps студия NLS
Английский, 48.0 KHz, AC3, 2 ch, 192 Kbps
Субтитры:
Английские, VobSub
Русские, SRT(UTF-8) только перевод фраз на итальянском (включены по умолчанию)
Общее
Уникальный идентификатор : 231804954922550884422600475561571582122 (0xAE6402A932DE9BC190A5BC70251F00AA)
Полное имя : G:FILMSSvadba.1978.DVDRip-AVC.mkv
Формат : Matroska
Версия формата : Version 4 / Version 2
Размер файла : 2,22 Гбайт
Продолжительность : 2 ч. 4 м.
Общий поток : 2549 Кбит/сек
Дата кодирования : UTC 2014-12-15 18:29:24
Программа кодирования : mkvmerge v7.4.0 ('Circles') 64bit built on Dec 12 2014 12:19:56
Библиотека кодирования : libebml v1.3.0 + libmatroska v1.4.1
DURATION : 01:18:02.361000000
NUMBER_OF_FRAMES : 35
NUMBER_OF_BYTES : 2674
_STATISTICS_WRITING_APP : mkvmerge v7.4.0 ('Circles') 64bit built on Dec 12 2014 12:19:56
_STATISTICS_WRITING_DATE_UTC : 2014-12-15 18:29:24
_STATISTICS_TAGS : BPS DURATION NUMBER_OF_FRAMES NUMBER_OF_BYTES

Видео
Идентификатор : 1
Формат : AVC
Формат/Информация : Advanced Video Codec
Профиль формата : High@L4.1
Параметр CABAC формата : Да
Параметр ReFrames формата : 16 кадров
Идентификатор кодека : V_MPEG4/ISO/AVC
Продолжительность : 2 ч. 4 м.
Битрейт : 2096 Кбит/сек
Ширина : 704 пикселя
Высота : 352 пикселя
Соотношение сторон : 2,35:1
Соотношение сторон в оригинале : 2,35:1
Режим частоты кадров : Постоянный
Частота кадров : 23,976 кадра/сек
Цветовое пространство : YUV
Субдискретизация насыщенности : 4:2:0
Битовая глубина : 8 бит
Тип развёртки : Прогрессивная
Бит/(Пиксели*Кадры) : 0.353
Размер потока : 1,79 Гбайт (80%)
Библиотека кодирования : x264 core 142 r2431 ac76440
Настройки программы : cabac=1 / ref=16 / deblock=1:0:0 / analyse=0x3:0x133 / me=umh / subme=10 / psy=1 / psy_rd=1.10:0.10 / mixed_ref=1 / me_range=32 / chroma_me=1 / trellis=2 / 8x8dct=1 / cqm=0 / deadzone=21,11 / fast_pskip=0 / chroma_qp_offset=-6 / threads=8 / lookahead_threads=2 / sliced_threads=0 / nr=0 / decimate=0 / interlaced=0 / bluray_compat=0 / constrained_intra=0 / bframes=13 / b_pyramid=2 / b_adapt=2 / b_bias=0 / direct=3 / weightb=1 / open_gop=0 / weightp=2 / keyint=240 / keyint_min=23 / scenecut=40 / intra_refresh=0 / rc_lookahead=60 / rc=2pass / mbtree=0 / bitrate=2096 / ratetol=1.0 / qcomp=0.60 / qpmin=0 / qpmax=69 / qpstep=4 / cplxblur=20.0 / qblur=0.5 / vbv_maxrate=50000 / vbv_bufsize=62500 / nal_hrd=none / filler=0 / ip_ratio=1.40 / pb_ratio=1.30 / aq=1:1.00
Default : Нет
Forced : Нет
Коэффициенты матрицы : BT.601
colour_range : Limited
DURATION : 02:04:56.031000000
NUMBER_OF_FRAMES : 179725
NUMBER_OF_BYTES : 1963792745
_STATISTICS_WRITING_APP : mkvmerge v7.4.0 ('Circles') 64bit built on Dec 12 2014 12:19:56
_STATISTICS_WRITING_DATE_UTC : 2014-12-15 18:29:24
_STATISTICS_TAGS : BPS DURATION NUMBER_OF_FRAMES NUMBER_OF_BYTES

Аудио #1
Идентификатор : 2
Формат : AC-3
Формат/Информация : Audio Coding 3
Расширение режима : CM (complete main)
Параметр Endianness формата : Big
Идентификатор кодека : A_AC3
Продолжительность : 2 ч. 4 м.
Вид битрейта : Постоянный
Битрейт : 128 Кбит/сек
Каналы : 2 канала
Расположение каналов : Front: L R
Частота : 48,0 КГц
Битовая глубина : 16 бит
Метод сжатия : С потерями
Задержка видео : 27 мс.
Размер потока : 114 Мбайт (5%)
Заголовок : Peterburg_5th_Channel
Язык : Russian
Default : Да
Forced : Нет

Аудио #2
Идентификатор : 3
Формат : AC-3
Формат/Информация : Audio Coding 3
Расширение режима : CM (complete main)
Параметр Endianness формата : Big
Идентификатор кодека : A_AC3
Продолжительность : 2 ч. 4 м.
Вид битрейта : Постоянный
Битрейт : 128 Кбит/сек
Каналы : 2 канала
Расположение каналов : Front: L R
Частота : 48,0 КГц
Битовая глубина : 16 бит
Метод сжатия : С потерями
Задержка видео : 27 мс.
Размер потока : 114 Мбайт (5%)
Заголовок : NLS
Язык : Russian
Default : Нет
Forced : Нет

Аудио #3
Идентификатор : 4
Формат : AC-3
Формат/Информация : Audio Coding 3
Профиль формата : Dolby Digital
Расширение режима : CM (complete main)
Параметр Endianness формата : Big
Идентификатор кодека : A_AC3
Продолжительность : 2 ч. 4 м.
Вид битрейта : Постоянный
Битрейт : 192 Кбит/сек
Каналы : 2 канала
Расположение каналов : Front: L R
Частота : 48,0 КГц
Битовая глубина : 16 бит
Метод сжатия : С потерями
Задержка видео : 27 мс.
Размер потока : 172 Мбайт (8%)
Язык : English
Default : Нет
Forced : Нет

Текст #1
Идентификатор : 5
Формат : VobSub
Режим смешивания : zlib
Идентификатор кодека : S_VOBSUB
Идентификатор кодека/Информация : The same subtitle format used on DVDs
Язык : English
Default : Нет
Forced : Нет

Текст #2
Идентификатор : 6
Формат : UTF-8
Идентификатор кодека : S_TEXT/UTF8
Идентификатор кодека/Информация : UTF-8 Plain Text
Заголовок : Italian dialogue
Язык : Russian
Default : Да
Forced : Нет

Меню
00:00:00.000 : en:Chapter 01
00:04:35.334 : en:Chapter 02
00:08:44.868 : en:Chapter 03
00:13:39.035 : en:Chapter 04
00:17:26.670 : en:Chapter 05
00:20:50.337 : en:Chapter 06
00:25:50.171 : en:Chapter 07
00:33:02.672 : en:Chapter 08
00:34:54.006 : en:Chapter 09
00:40:51.506 : en:Chapter 10
00:45:07.173 : en:Chapter 11
00:51:50.009 : en:Chapter 12
00:57:33.509 : en:Chapter 13
00:59:52.210 : en:Chapter 14
01:05:51.510 : en:Chapter 15
01:10:47.344 : en:Chapter 16
01:13:39.344 : en:Chapter 17
01:17:31.846 : en:Chapter 18
01:20:10.513 : en:Chapter 19
01:25:11.513 : en:Chapter 20
01:27:45.680 : en:Chapter 21
01:33:19.514 : en:Chapter 22
01:38:37.514 : en:Chapter 23
01:42:05.514 : en:Chapter 24
01:47:03.348 : en:Chapter 25
01:51:05.848 : en:Chapter 26
01:56:51.215 : en:Chapter 27
02:00:40.049 : en:Chapter 28
Релиз от: Temperest



Скачать Свадьба.A.Wedding.(Роберт.Олтман).[1978.комедия.сатира.DVDRip-AVC].[MVO]+[DVO]+[Sub]x3.torrent без регистрации
Золото ЗОЛОТАЯ РАЗДАЧА! СКАЧАННОЕ НЕ ЗАСЧИТЫВАЕТСЯ! Золото
Дата: Зарегистрирован   [ Тип: внутренний ] Как тут cкачать?
MAGNET ссылка
MAGNET ссылка


Скачать .torrent

12 KB

Статус: проверено DHT
Скачан: торрент - 96 раз, раздача полностью - 6 раз
Размер: 2,22 GB
Оценка:  - (Голосов: 0)
Поблагодарили: 1
Поделиться ссылкой на эту раздачу с друзьями:
В контактеFacebookОдноклассникиTwitterLivejournalМой МирLiveinternet
 

 
Показать сообщения:    


Вы не можете начинать темы
Вы не можете отвечать на сообщения
Вы не можете редактировать свои сообщения
Вы не можете удалять свои сообщения
Вы не можете голосовать в опросах
Вы не можете прикреплять файлы к сообщениям
Вы можете скачивать файлы