Loading...
Error

Скачать Джейсон отправляется в ад: Последняя пятница / Jason Goes to Hell: The Final Friday (Адам Маркус) [1993, ужасы, триллер, DVDRip] [DVO] торрент без регистрации

 
Статистика раздачи
Размер:  1,45 GB   |    Скачан:  144 раза
Сидов:  1  [  0 KB/s  ]  
 
Автор Сообщение

Marsianka

[] 

"Horror, has many faces... death, wears many different masks... but pure evil,
wears only one... and this is your final chance, to see it."


Информация о фильме:

Название: Джейсон отправляется в ад: Последняя пятница
Оригинальное название: Jason Goes to Hell: The Final Friday
Год выхода: 1993
Жанр: ужасы, триллер

Страна:
Выпущено: New Line Cinema
Продолжительность: 01:30:43
Перевод: Профессиональный, двухголосый, закадровый (НТВ+) /В местах вырезанных в ТВ-версии вставки из одноголоски (Юрий Живов)
Качество: DVDRip
Формат: AVI
Видео кодек: XviD
Аудио кодек: MP3
Видео: 704x384 (1.83:1), 23.976 fps, XviD build 56 ~2156 kbps avg, 0.33 bit/pixel
Аудио: 48 kHz, MPEG Layer 3, 2 ch, ~128.00 kbps avg
Субтитры: Нет
Навигация по главам: Нет

Режиссер: Адам Маркус /Adam Marcus/
Оператор: Билл Дилл /Bill Dill/
Композитор: Гарри Манфредини /Harry Manfredini/

В ролях: Кэйн Ходдер /Kane Hodder/, Джон Д. Лемэй /John D. LeMay/, Кэри Кигэн /Kari Keegan/, Стивен Уильямс /Steven Williams/, Стивен Калп /Steven Culp/, Эрин Грэй /Erin Gray/, Расти Швиммер /Rusty Schwimmer/, Ричард Гант /Richard Gant/, Лесли Джордан /Leslie Jordan/, Билли Грин Буш /Billy Green Bush/, Кипп Маркус /Kipp Marcus/ и другие...

Описание: В "Последней пятнице" покончить с мрачным монстром в хоккейной маске может только кто-нибудь из его родственников. Поэтому монстр, "выписывавшись" из морга, начинает охотиться за своей племянницей и ее младенцем, перебив при этом, как водится, кучу народа. Но та все-таки сумела постоять за себя. Может быть, эта "Пятница", девятая по счету, действительно окажется последней? (Иванов М.)

Попавший в ловушку, устроенную ФБР и взорванный бомбой, Джейсон возвращается к жизни в теле чернокожего патологоанатома, делавшего вскрытие обгоревшего трупа маньяка. Начинаются немотивированные и беспричинные убийства невинных людей перемещающегося из тела в тела Джейсона.
Общественность предлагает охотнику за маньяками Крейтону Дьюку пятьсот тысяч долларов за то, чтобы тот уничтожил Джейсона. Стивен Фриман, живущий поблизости от Кристального озера, догадывается, что Джейсон ищет оставшихся в живых членов своей семьи, чтобы войти в «родное» тело. Он пытается защитить свою подругу Джессику, которая является единственным потомком семейки Вурхисов…

. Всего в девяти картинах погиб 141 человек.
. Бетси Палмер (матери Джейсона) предложили в этой картине небольшую роль, но она отказалась.
. Спустя тринадцать лет к созданию картины приложил руку основатель сериала Шон Каннингэм.
. В оригинале сценария в качестве убийцы фигурировал брат Джейсона - Элайес. Эта сюжетная линия была забракована, но имя Элайес было присвоено отцу Джейсона.
. Дата премьеры фильма (пятница 13-ого августа 1993 года) была выбрана не случайно - в тот день исполнялось ровно 13 лет с момента выхода на экран первой части эпопеи.
. В первый же уик-энд картина вышла на второе место по кассовым сборам (уступив только «Восходящему солнцу» с Шоном Коннери). В итоге фильм стал самым кассовым американским фильмом ужасов 1993 года.
. Режиссёр фильма Адам Маркус в 12-летнем возрасте работал «на побегушках» у Шона Каннингэма на съёмках самой первой «Пятницы, 13-е».
Format : AVI
Format/Info : Audio Video Interleave
File size : 1.45 GiB
Duration : 1h 30mn
Overall bit rate : 2 294 Kbps
Writing application : VirtualDubMod 1.5.10.2 (build 2540/release)

Video
ID : 0
Format : MPEG-4 Visual
Format profile : Advanced Simple@L5
Format settings, BVOP : Yes
Format settings, QPel : No
Format settings, GMC : No warppoints
Format settings, Matrix : Custom
Codec ID : XVID
Codec ID/Hint : XviD
Duration : 1h 30mn
Bit rate : 2 157 Kbps
Width : 704 pixels
Height : 384 pixels
Display aspect ratio : 16:9
Frame rate : 23.976 fps
Color space : YUV
Chroma subsampling : 4:2:0
Bit depth : 8 bits
Scan type : Progressive
Bits/(Pixel*Frame) : 0.333
Stream size : 1.37 GiB (94%)
Writing library : XviD 56

Audio
ID : 1
Format : MPEG Audio
Format version : Version 1
Format profile : Layer 3
Mode : Joint stereo
Mode extension : MS Stereo
Codec ID : 55
Codec ID/Hint : MP3
Duration : 1h 30mn
Bit rate mode : Constant
Bit rate : 128 Kbps
Channel(s) : 2 channels
Sampling rate : 48.0 KHz
Stream size : 83.1 MiB (6%)
Alignment : Aligned on interleaves
Interleave, duration : 42 ms (1.00 video frame)
Interleave, preload duration : 504 ms



Скачать Джейсон.отправляется.в.ад.Последняя.пятница.Jason.Goes.to.Hell.The.Final.Friday.(Адам.Маркус).[1993.ужасы.триллер.DVDRip].[DVO].torrent без регистрации
Золото ЗОЛОТАЯ РАЗДАЧА! СКАЧАННОЕ НЕ ЗАСЧИТЫВАЕТСЯ! Золото
Дата: Зарегистрирован   [ Тип: внутренний ] Как тут cкачать?
MAGNET ссылка
MAGNET ссылка


Скачать .torrent

15 KB

Статус: проверено DHT
Скачан: торрент - 144 раз, раздача полностью - 49 раз
Размер: 1,45 GB
Оценка:  - (Голосов: 0)
Поблагодарили: 0
Поделиться ссылкой на эту раздачу с друзьями:
В контактеFacebookОдноклассникиTwitterLivejournalМой МирLiveinternet
 

 
Показать сообщения:    


Вы не можете начинать темы
Вы не можете отвечать на сообщения
Вы не можете редактировать свои сообщения
Вы не можете удалять свои сообщения
Вы не можете голосовать в опросах
Вы не можете прикреплять файлы к сообщениям
Вы можете скачивать файлы