Loading...
Error

Скачать Мистер Индия / Mr India (Шекхар Капур) [1987, мюзикл, фантастика, фэнтези, боевик, драма, мелодрама, комедия, приключения, BDRip-AVC] [MVO]+[Оригинал (Хинди)]+[Sub] торрент без регистрации

 
Статистика раздачи
Размер:  4,37 GB   |    Скачан:  109 раз

Полного источника не было: 29 минут

 
Автор Сообщение

Marsianka

[] 

Информация о фильме
Название: Мистер Индия
Оригинальное название: Mr India
Год выхода: 1987
Жанр: мюзикл, фантастика, фэнтези, боевик, драма, мелодрама, комедия, приключения
Режиссер: Шекхар Капур
В ролях: Анил Капур, Шридеви, Амриш Пури, Сатиш Каушик, Анну Капур, Аджит Вачани, Шарат Саксена, Ашок Кумар, Боб Кристо, Рамеш Део

Описание: Супернегодяй Могамбо решает покорить Индию силами мощной армии. Гениальный ученый Верма изобретает средство как стать невидимым. Пытаясь завладеть этим средством, Могамбо убивает ученого. А дальше вы узнаете, кто такой «мистер Индия» и познакомитесь с его верными помощниками.



Страна: Индия
Продолжительность: 02:58:48
Перевод #1: Профессиональный (Многоголосый, Закадровый) (Формат АВ)
Перевод #2: Хинди (Оригинал)

Файл
Формат: MKV
Качество: BDRip-AVC (Источник: mr.india.1987.1080p.bluray.x264-cinefile)
Видео: 1024x448 (2,35:1), 24.000 fps, 2922 kbps, 0.265 bit/pixel
Аудио #1: AC-3, 2 ch, 192 kbps (Многоголосый Формат АВ)
Аудио #2: AC-3, 6 ch, 384 kbps (Хинди Оригинал)
Субтитры: Английские (Полные)
General
Unique ID : 205484881789945086256601849117175173684 (0x9A96F2DDBA91421F88543D7A1C5BD234)
Complete name : Mr.India.1987.BDRip.AVC.P.mkv
Format : Matroska
Format version : Version 2
File size : 4.37 GiB
Duration : 2h 58mn
Overall bit rate : 3 500 Kbps
Encoded date : UTC 2014-12-17 14:35:06
Writing application : mkvmerge v5.6.0 ('Kenya Kane') built on May 27 2012 16:44:04
Writing library : libebml v1.2.3 + libmatroska v1.3.0

Video
ID : 1
Format : AVC
Format/Info : Advanced Video Codec
Format profile : High@L4.1
Format settings, CABAC : Yes
Format settings, ReFrames : 8 frames
Codec ID : V_MPEG4/ISO/AVC
Duration : 2h 58mn
Bit rate : 2 922 Kbps
Width : 1 024 pixels
Height : 448 pixels
Display aspect ratio : 2.35:1
Frame rate mode : Constant
Frame rate : 24.000 fps
Color space : YUV
Chroma subsampling : 4:2:0
Bit depth : 8 bits
Scan type : Progressive
Bits/(Pixel*Frame) : 0.265
Stream size : 3.56 GiB (82%)
Title : Мистер Индия / Mr India (1987)
Writing library : x264 core 142 r2431 ac76440
Encoding settings : cabac=1 / ref=8 / deblock=1:-2:-2 / analyse=0x3:0x113 / me=umh / subme=11 / psy=1 / psy_rd=1.00:0.00 / mixed_ref=1 / me_range=32 / chroma_me=1 / trellis=2 / 8x8dct=1 / cqm=0 / deadzone=21,11 / fast_pskip=1 / chroma_qp_offset=-2 / threads=6 / lookahead_threads=1 / sliced_threads=0 / nr=0 / decimate=1 / interlaced=0 / bluray_compat=0 / constrained_intra=0 / bframes=6 / b_pyramid=2 / b_adapt=2 / b_bias=0 / direct=3 / weightb=1 / open_gop=0 / weightp=2 / keyint=240 / keyint_min=24 / scenecut=40 / intra_refresh=0 / rc=2pass / mbtree=0 / bitrate=2922 / ratetol=1.0 / qcomp=0.60 / qpmin=0 / qpmax=69 / qpstep=4 / cplxblur=20.0 / qblur=0.5 / ip_ratio=1.40 / pb_ratio=1.30 / aq=1:1.00
Language : Hindi
Default : Yes
Forced : No
Color primaries : BT.709
Transfer characteristics : BT.709
Matrix coefficients : BT.709

Audio #1
ID : 2
Format : AC-3
Format/Info : Audio Coding 3
Mode extension : CM (complete main)
Format settings, Endianness : Big
Codec ID : A_AC3
Duration : 2h 58mn
Bit rate mode : Constant
Bit rate : 192 Kbps
Channel(s) : 2 channels
Channel positions : Front: L R
Sampling rate : 48.0 KHz
Bit depth : 16 bits
Compression mode : Lossy
Stream size : 246 MiB (5%)
Title : Многоголосый 2.0 (Формат АВ)
Language : Russian
Default : Yes
Forced : No

Audio #2
ID : 3
Format : AC-3
Format/Info : Audio Coding 3
Mode extension : CM (complete main)
Format settings, Endianness : Big
Codec ID : A_AC3
Duration : 2h 58mn
Bit rate mode : Constant
Bit rate : 384 Kbps
Channel(s) : 6 channels
Channel positions : Front: L C R, Side: L R, LFE
Sampling rate : 48.0 KHz
Bit depth : 16 bits
Compression mode : Lossy
Stream size : 491 MiB (11%)
Title : Хинди 5.1 (Оригинал)
Language : Hindi
Default : No
Forced : No

Text
ID : 4
Format : UTF-8
Codec ID : S_TEXT/UTF8
Codec ID/Info : UTF-8 Plain Text
Title : Английские (Полные)
Language : English
Default : No
Forced : No



Скачать Мистер.Индия.Mr.India.(Шекхар.Капур).[1987.мюзикл.фантастика.фэнтези.боевик.драма.мелодрама.комедия.приключения.BDRip-AVC].[MVO]+[Оригинал.(Хинди)]+[Sub].torrent без регистрации
Золото ЗОЛОТАЯ РАЗДАЧА! СКАЧАННОЕ НЕ ЗАСЧИТЫВАЕТСЯ! Золото
Дата: Зарегистрирован   [ Тип: внутренний ] Как тут cкачать?
MAGNET ссылка
MAGNET ссылка


Скачать .torrent

22 KB

Статус: проверено DHT
Скачан: торрент - 109 раз, раздача полностью - 1 раз
Размер: 4,37 GB
Оценка:  - (Голосов: 0)
Поблагодарили: 1
Поделиться ссылкой на эту раздачу с друзьями:
В контактеFacebookОдноклассникиTwitterLivejournalМой МирLiveinternet
 

 
Показать сообщения:    


Вы не можете начинать темы
Вы не можете отвечать на сообщения
Вы не можете редактировать свои сообщения
Вы не можете удалять свои сообщения
Вы не можете голосовать в опросах
Вы не можете прикреплять файлы к сообщениям
Вы можете скачивать файлы