Loading...
Error

Скачать Великолепный / Gorgeous / Boh lee chun (Винсент Кок) [1999, мелодрама, комедия, боевик BDRip] [MVO]+[AVO] торрент без регистрации

 
Статистика раздачи
Размер:  1,46 GB   |    Скачан:  112 раз
Сидов:  26  [  0 KB/s  ]  
 
Автор Сообщение

Marsianka

[] 

Великолепный / Gorgeous / Boh lee chun
Страна: Гонконг, Тайвань
Жанр: мелодрама, комедия, боевик
Год выпуска: 1999
Продолжительность: 01:59:37
Перевод: Профессиональный (многоголосый закадровый) ОРТ / Первый Канал со вставками AVO Кашкина
Оригинальная аудиодорожка: нет
Cубтитры: нет

Режиссер: Винсент Кок / Vincent Kok

В ролях: Джеки Чан, Шу Ци, Тони Люн Чу Вай, Эмиль Чау, Ричи Рен, Кен Ло, Санг Янг Чен, Илэйн Цзинь, Брэдли Джеймс Аллан, Тац Лау

Описание: Знаменитый мастер восточных единоборств Джеки Чан вновь демонстрирует свою непревзойденную технику и виртуозные трюки в этом великолепном романтическом боевике. Несравненная Бу, девушка из маленькой деревни на берегу океана, приезжает в шумный Гонконг в поисках приключений. Здесь она знакомиться с Ченом — знаменитым миллионером. Но романтическая Золушка не подозревает, что Чен окажется очень опасным кавалером.



Качество: BDRip [BDRemux 1080p]
Формат: AVI
Видео кодек: XviD
Аудио кодек: AC3
Видео: 720x304 (2.37:1), 23.976 fps, XviD build 73 ~1549 kbps avg, 0.29 bit/pixel
Аудио: 48 kHz, AC3 Dolby Digital, 2/0 (L,R) ch, ~192 kbps
Раздача от:
D:Мои рипыGorgeous.1999.bdrip.dexter_lex.avi
General
Complete name : D:Мои рипыGorgeous.1999.bdrip.dexter_lex.avi
Format : AVI
Format/Info : Audio Video Interleave
File size : 1.46 GiB
Duration : 1h 59mn
Overall bit rate : 1 751 Kbps
Writing application : VirtualDubMod 1.5.10.3 | www.virtualdub-fr.org || (build 2550/release)
Writing library : VirtualDubMod build 2550/release
Video #0
ID : 0
Format : MPEG-4 Visual
Format profile : Advanced Simple@L5
Format settings, BVOP : 1
Format settings, QPel : No
Format settings, GMC : No warppoints
Format settings, Matrix : Custom
Codec ID : XVID
Codec ID/Hint : XviD
Duration : 1h 59mn
Bit rate : 1 550 Kbps
Width : 720 pixels
Height : 304 pixels
Display aspect ratio : 2.35:1
Frame rate : 23.976 fps
Color space : YUV
Chroma subsampling : 4:2:0
Bit depth : 8 bits
Scan type : Progressive
Compression mode : Lossy
Bits/(Pixel*Frame) : 0.295
Stream size : 1.29 GiB (88%)
Writing library : XviD 73
Audio #1
ID : 1
Format : AC-3
Format/Info : Audio Coding 3
Mode extension : CM (complete main)
Codec ID : 2000
Duration : 1h 59mn
Bit rate mode : Constant
Bit rate : 192 Kbps
Channel(s) : 2 channels
Channel positions : Front: L R
Sampling rate : 48.0 KHz
Bit depth : 16 bits
Compression mode : Lossy
Stream size : 164 MiB (11%)
Alignment : Split accross interleaves
Interleave, duration : 42 ms (1.00 video frame)
Interleave, preload duration : 500 ms



Скачать Великолепный.Gorgeous.Boh.lee.chun.(Винсент.Кок).[1999.мелодрама.комедия.боевик.BDRip].[MVO]+[AVO].torrent без регистрации
Золото ЗОЛОТАЯ РАЗДАЧА! СКАЧАННОЕ НЕ ЗАСЧИТЫВАЕТСЯ! Золото
Дата: Зарегистрирован   [ Тип: внешний ] Как тут cкачать?
MAGNET ссылка
MAGNET ссылка


Скачать .torrent

15 KB

Статус: проверено DHT
Скачан: торрент - 112 раз, раздача полностью - 78 раз
Размер: 1,46 GB
Оценка:  5 (Голосов: 1)
Поблагодарили: 4
Поделиться ссылкой на эту раздачу с друзьями:
В контактеFacebookОдноклассникиTwitterLivejournalМой МирLiveinternet
 

 
Показать сообщения:    


Вы не можете начинать темы
Вы не можете отвечать на сообщения
Вы не можете редактировать свои сообщения
Вы не можете удалять свои сообщения
Вы не можете голосовать в опросах
Вы не можете прикреплять файлы к сообщениям
Вы можете скачивать файлы