Loading...
Error

Скачать Отвратительные, грязные, злые / Brutti sporchi e cattivi (Этторе Скола) [1976, драма, комедия, арт-хаус, BDRip-AVC] [DVO]+[Оригинал]+[Sub]x2 торрент без регистрации

 
Статистика раздачи
Размер:  2,74 GB   |    Скачан:  99 раз
Сидов:  1  [  0 KB/s  ]  
 
Автор Сообщение

Marsianka

[] 

Информация о фильме
Название: Отвратительные, грязные, злые
Оригинальное название: Brutti sporchi e cattivi (Down and Dirty, Ugly, Dirty and Bad)
Год выхода: 1976
Жанр: драма, комедия, арт-хаус
Режиссер: Этторе Скола
В ролях: Нино Манфреди, Мария Луиза Сантелла, Франко Аннибальди, Мария Боско, Джизельда Кастрини, Альфредо Д’Ипполито, Джанкарло Фанелли, Марина Фазоли, Этторе Гарофоло, Марко Марсили, Франко Мерли, Линда Моретти, Лучиано Пальюка, Джузеппе Паравати, Сильвана Приори, Джованни Ровини, Франческо Крешимоне, Клариссе Монако, Ассунта Стаккони, Адриана Руссо, Берил Каннингэм, Сильвия Ферлуга, Зои Инкроччи, Франко Марино

О фильме: На окраине Вечного города Рима, в грязном старом бараке живут четыре поколения семьи Маццателла. Старый глава семьи Джачинто не всегда может разобраться, кто здесь - чей сын, внук или племянник: в такой тесноте не все помнят, кто с кем и когда спал. Кто-то выполняет черную работу, кто-то промышляет грабежом, кто-то занимается проституцией. Старик Джачинто уверен в одном: все его домочадцы - воры, которые мечтают разузнать, где он прячет свои сбережения. Но, однажды, он сам забывает, где спрятал деньги… Вечные человеческие страсти и пороки одинаково разъедают души и бедняков, и богачей.



Страна: Италия
Студия: Compagnia Cinematografica Champion, Surf Film
Продолжительность: 01:55:49
Перевод: Профессиональный двухголосый

Файл
Кодек: MPEG-4 AVC
Качество: BDRip-AVC
Видео: 3000 Кбит/с, 1024х554, 24.000 кадр/с
Аудио #1: Русский (AC3, 2 ch, 192 Кбит/с) / Профессиональный двухголосый (Другое кино)
Аудио #2: Итальянский (AC3, 1 ch, 192 Кбит/с)
Субтитры: Русские, английские
Семпл
Общее
Уникальный идентификатор : 244078646382843783073341856067754900804 (0xB79FD65EE41A8D9682D70083CCBBBD44)
Полное имя : H:1FilmsHРелизыOtvratitelnye.grjaznye.zlye.1976.x264.BDRip.AVC.MediaClub.mkv
Формат : Matroska
Версия формата : Version 4 / Version 2
Размер файла : 2,74 Гбайт
Продолжительность : 1 ч. 55 м.
Общий поток : 3386 Кбит/сек
Название фильма : -= MediaClub =- rip by Lefevr
Дата кодирования : UTC 2014-12-14 12:33:58
Программа кодирования : mkvmerge v6.1.0 ('Old Devil') built on Mar 4 2013 09:10:42
Библиотека кодирования : libebml v1.3.0 + libmatroska v1.4.0

Видео
Идентификатор : 1
Формат : AVC
Формат/Информация : Advanced Video Codec
Профиль формата : High@L4.1
Параметр CABAC формата : Да
Параметр ReFrames формата : 9 кадров
Идентификатор кодека : V_MPEG4/ISO/AVC
Продолжительность : 1 ч. 55 м.
Битрейт : 3000 Кбит/сек
Ширина : 1024 пикселя
Высота : 554 пикселя
Соотношение сторон : 1,85:1
Режим частоты кадров : Постоянный
Частота кадров : 24,000 кадра/сек
Цветовое пространство : YUV
Субдискретизация насыщенности : 4:2:0
Битовая глубина : 8 бит
Тип развёртки : Прогрессивная
Бит/(Пиксели*Кадры) : 0.220
Размер потока : 2,37 Гбайт (87%)
Заголовок : Otvratitelnye.grjaznye.zlye.1976.x264.BDRip.AVC.MediaClub
Библиотека кодирования : x264 core 130 r2273 b3065e6
Настройки программы : cabac=1 / ref=9 / deblock=1:-3:-3 / analyse=0x3:0x133 / me=umh / subme=11 / psy=1 / psy_rd=1.00:0.25 / mixed_ref=1 / me_range=32 / chroma_me=1 / trellis=2 / 8x8dct=1 / cqm=0 / deadzone=21,11 / fast_pskip=0 / chroma_qp_offset=-4 / threads=6 / lookahead_threads=1 / sliced_threads=0 / nr=0 / decimate=0 / interlaced=0 / bluray_compat=0 / constrained_intra=0 / bframes=8 / b_pyramid=2 / b_adapt=2 / b_bias=0 / direct=3 / weightb=1 / open_gop=0 / weightp=2 / keyint=240 / keyint_min=23 / scenecut=40 / intra_refresh=0 / rc=2pass / mbtree=0 / bitrate=3000 / ratetol=1.0 / qcomp=0.60 / qpmin=0 / qpmax=69 / qpstep=4 / cplxblur=20.0 / qblur=0.5 / ip_ratio=1.40 / pb_ratio=1.30 / aq=1:1.00
Язык : Italian
Default : Да
Forced : Да

Аудио #1
Идентификатор : 2
Формат : AC-3
Формат/Информация : Audio Coding 3
Расширение режима : CM (complete main)
Параметр Endianness формата : Big
Идентификатор кодека : A_AC3
Продолжительность : 1 ч. 55 м.
Вид битрейта : Постоянный
Битрейт : 192 Кбит/сек
Каналы : 2 канала
Расположение каналов : Front: L R
Частота : 48,0 КГц
Битовая глубина : 16 бит
Метод сжатия : С потерями
Размер потока : 159 Мбайт (6%)
Заголовок : TRACK_01_DVO_RUS_Другое кино
Язык : Russian
Default : Да
Forced : Да

Аудио #2
Идентификатор : 3
Формат : AC-3
Формат/Информация : Audio Coding 3
Расширение режима : CM (complete main)
Параметр Endianness формата : Big
Идентификатор кодека : A_AC3
Продолжительность : 1 ч. 55 м.
Вид битрейта : Постоянный
Битрейт : 192 Кбит/сек
Каналы : 1 канал
Расположение каналов : Front: C
Частота : 48,0 КГц
Битовая глубина : 16 бит
Метод сжатия : С потерями
Размер потока : 159 Мбайт (6%)
Заголовок : TRACK_02_ORIGINAL_ITA
Язык : Italian
Default : Нет
Forced : Нет

Текст #1
Идентификатор : 4
Формат : UTF-8
Идентификатор кодека : S_TEXT/UTF8
Идентификатор кодека/Информация : UTF-8 Plain Text
Заголовок : TEXT_01_SUB_RUS.srt
Язык : Russian
Default : Нет
Forced : Нет

Текст #2
Идентификатор : 5
Формат : UTF-8
Идентификатор кодека : S_TEXT/UTF8
Идентификатор кодека/Информация : UTF-8 Plain Text
Заголовок : TEXT_02_SUB_ENG.srt
Язык : English
Default : Нет
Forced : Нет

Меню
00:00:00.000 : en:00:00:00.000
00:03:29.915 : en:00:03:29.915
00:07:52.375 : en:00:07:52.375
00:17:51.000 : en:00:17:51.000
00:27:24.583 : en:00:27:24.583
00:35:47.375 : en:00:35:47.375
00:43:54.291 : en:00:43:54.291
00:52:52.958 : en:00:52:52.958
01:00:44.625 : en:01:00:44.625
01:06:43.041 : en:01:06:43.041
01:14:01.457 : en:01:14:01.457
01:22:04.250 : en:01:22:04.250
01:26:18.500 : en:01:26:18.500
01:34:29.750 : en:01:34:29.750
01:43:19.500 : en:01:43:19.500
01:49:16.832 : en:01:49:16.832

...last pass...

x264.exe: --pass 2 --bitrate 3000 --preset veryslow --profile high --level 4.1 --ref 9 --deblock -3:-3 --merange 32 --no-fast-pskip --no-dct-decimate --psy-rd 1.00:0.25 --subme 11 --no-mbtree --keyint 240 --sar 1:1 --stats "E:1Films EРелизыBrutti, sporchi e cattivi11111.log" --output "E:1Films EРелизыBrutti, sporchi e cattivi11111.mkv" "F:Temp067.avs"

avs [info]: 1024x554p 1:1 @ 10000000/416667 fps (cfr)
x264 [info]: using SAR=1/1
x264 [info]: using cpu capabilities: MMX2 SSE2Fast SSSE3 SSE4.2 AVX
x264 [info]: profile High, level 4.1

x264 [info]: frame I:915 Avg QP:14.95 size: 84325
x264 [info]: frame P:42283 Avg QP:17.87 size: 30408
x264 [info]: frame B:123587 Avg QP:19.17 size: 10060
x264 [info]: consecutive B-frames: 4.1% 4.1% 12.2% 21.7% 23.0% 29.8% 3.3% 1.0% 0.9%
x264 [info]: mb I I16..4: 12.7% 67.1% 20.2%
x264 [info]: mb P I16..4: 1.2% 15.4% 1.8% P16..4: 25.8% 31.2% 15.5% 3.8% 0.4% skip: 4.8%
x264 [info]: mb B I16..4: 0.1% 1.5% 0.2% B16..8: 31.2% 25.6% 5.3% direct: 5.8% skip:30.3% L0:38.8% L1:41.3% BI:19.9%
x264 [info]: 8x8 transform intra:82.2% inter:42.4%
x264 [info]: direct mvs spatial:99.0% temporal:1.0%
x264 [info]: coded y,uvDC,uvAC intra: 92.6% 80.0% 59.4% inter: 27.4% 17.2% 8.1%
x264 [info]: i16 v,h,dc,p: 41% 6% 17% 36%
x264 [info]: i8 v,h,dc,ddl,ddr,vr,hd,vl,hu: 10% 10% 13% 8% 11% 11% 11% 12% 14%
x264 [info]: i4 v,h,dc,ddl,ddr,vr,hd,vl,hu: 11% 8% 7% 8% 15% 14% 13% 11% 12%
x264 [info]: i8c dc,h,v,p: 42% 26% 17% 14%
x264 [info]: Weighted P-Frames: Y:7.5% UV:2.9%
x264 [info]: ref P L0: 46.3% 12.7% 17.3% 5.8% 5.4% 3.7% 3.8% 2.0% 2.4% 0.5% 0.0%
x264 [info]: ref B L0: 78.3% 9.9% 4.4% 2.5% 1.8% 1.7% 1.0% 0.5%
x264 [info]: ref B L1: 95.4% 4.6%
x264 [info]: kb/s:3000.21
Релиз от: | Автор рипа:



Скачать Отвратительные.грязные.злые.Brutti.sporchi.e.cattivi.(Этторе.Скола).[1976.драма.комедия.арт-хаус.BDRip-AVC].[DVO]+[Оригинал]+[Sub]x2.torrent без регистрации
Золото ЗОЛОТАЯ РАЗДАЧА! СКАЧАННОЕ НЕ ЗАСЧИТЫВАЕТСЯ! Золото
Дата: Зарегистрирован   [ Тип: внутренний ] Как тут cкачать?
MAGNET ссылка
MAGNET ссылка


Скачать .torrent

14 KB

Статус: проверено DHT
Скачан: торрент - 99 раз, раздача полностью - 5 раз
Размер: 2,74 GB
Оценка:  - (Голосов: 0)
Поблагодарили: 1
Поделиться ссылкой на эту раздачу с друзьями:
В контактеFacebookОдноклассникиTwitterLivejournalМой МирLiveinternet
 

 
Показать сообщения:    


Вы не можете начинать темы
Вы не можете отвечать на сообщения
Вы не можете редактировать свои сообщения
Вы не можете удалять свои сообщения
Вы не можете голосовать в опросах
Вы не можете прикреплять файлы к сообщениям
Вы можете скачивать файлы