Loading...
Error

Скачать Дум / Doom (Анджей Бартковяк) [2005, ужасы, фантастика, боевик, триллер, приключения, BDRip-AVC] [AVO (А.Гаврилов, А.Матвеев)]x2+[DVO] торрент без регистрации

 
Статистика раздачи
Размер:  2,53 GB   |    Скачан:  125 раз
Сидов:  1  [  0 KB/s  ]  
 
Автор Сообщение

Marsianka

[] 

Информация о фильме
Название: Дум
Оригинальное название: Doom
Год выхода: 2005
Жанр: ужасы, фантастика, боевик, триллер, приключения
Режиссер: Анджей Бартковяк
Сценарий: Дэйв Каллахэм, Уэсли Стрик
Продюсер: Лоренцо Ди Бонавентура, Джон Уэллс,Лаура Холстейн
В ролях: Карл Урбан, Дуэйн Джонсон, Доби Опарей, Розамунд Пайк, Разаак Адоти, Ричард Брэйк, Аль Уивер, Декстер Флетчер, Брайан Стил, Бен Дэниелс
О фильме:
2145 год. После того, как из далёкой научной лаборатории Олдуай был получен сигнал о помощи, на место ― планету Марс ― пребывает отряд космического спецназа и обнаруживает разгромленную станцию. Вскоре выясняется, что на людей здесь охотятся полчища ужасных существ-мутантов…
Фильм снят по мотивам серии компьютерных игр «Doom» (1993 — н. в., id Software).
В исходном описании игры «Doom» аббревиатура оружия, из которого в финале стреляет герой Дуэйна Джонсона, расшифровывается как «Big Fucking Gun».
Ролик в титрах использует множество текстур и световых эффектов из Doom 3: коробки с «Х» на боках, бочки, машина со светящимся цилиндром.
Тодд Холленсхэд, управляющий делами (CEO) id Software, был с самого начала съёмок привлечён к созданию фильма. Он просматривал сценарии и утверждал их.
Татуировка на спине Скалы «SEMPER FI» — это стандартное сокращение пехотинцев для латинской фразы, являющейся девизом морпехов США, — Semper fidelis (Всегда верный).
В фильме планировалось появление какодемона, но он был вырезан из финальной версии.
В сцене от первого лица играет ремикс классической музыкальной темы Doom.
Имена учёных, Доктора Кармака и Доктора Уиллитса, — отсылки на разработчиков из id Software Джона Кармака и Тима Уиллитса.
В фильме используется звук открывающейся двери из игры Doom 3.
После того как пехотинцы возвращаются на Землю до Климакса, то когда Демон разговаривает в комнате с Ковчегом, за его спиной на стене можно увидеть нарисованную стрелку вправо с подписью «To Delta Labs»; возможно, это отсылка к лабораториям Дельта из Doom 3.
Штурмовые винтовки, которыми пользуются морпехи — модифицированная немецкая штурмовая винтовка G36.
Морпех, которого играет Карл Урбан, в оригинале носит кличку «Reaper», что значит «Жнец», в то время как его фамилия — «Grimm». Это непереводимая игра слов — grim reaper (мрачный жнец) — английский эвфемизм смерти.

Страна: Великобритания, Чехия, Германия, США
Студия: Babelsberg Film GmbH, Di Bonaventura Pictures, Distant Planet Productions, Doom Productions, John Wells Productions, Reaper Productions, Stillking Films

Продолжительность: 01:52:44
Перевод: Авторский одноголосый, профессиональный (двуголосый) закадровый

Файл
Кодек: MPEG-4 AVC/H.264
Качество: BDRip-AVC
Видео: ~2250 Кбит/сек, 1152x488
1: Русский, AC3 5.1, 384 Кбит/сек, 48 kHz (Авторский, А.Гаврилов)
2: Русский, AC3 5.1, 384 Кбит/сек, 48 kHz (Авторский, А.Матвеев «Doctor Joker», без цензуры)
3: Русский, AC3 2.0, 192 Кбит/сек, 48 kHz (Двуголосый закадровый, студия «Tycoon»)[/i]
Субтитры: Отсутствуют
Общее
Уникальный идентификатор : 210012434834477033222750754545010404396 (0x9DFEEC7738178502A732C17E1932EC2C)
Полное имя : F:DownloadsДум.mkv
Формат : Matroska
Версия формата : Version 4 / Version 2
Размер файла : 2,53 Гбайт
Продолжительность : 1 ч. 52 м.
Общий поток : 3212 Кбит/сек
Дата кодирования : UTC 2014-12-16 22:19:22
Программа кодирования : mkvmerge v7.0.0 ('Where We Going') 32bit built on Jun 9 2014 15:08:34
Библиотека кодирования : libebml v1.3.0 + libmatroska v1.4.1
DURATION : 01:52:44.896000000
NUMBER_OF_FRAMES : 211403
NUMBER_OF_BYTES : 162357504
_STATISTICS_WRITING_APP : mkvmerge v7.0.0 ('Where We Going') 32bit built on Jun 9 2014 15:08:34
_STATISTICS_WRITING_DATE_UTC : 2014-12-16 22:19:22
_STATISTICS_TAGS : BPS DURATION NUMBER_OF_FRAMES NUMBER_OF_BYTES

Видео
Идентификатор : 1
Формат : AVC
Формат/Информация : Advanced Video Codec
Профиль формата : High@L4.1
Параметр CABAC формата : Да
Параметр ReFrames формата : 8 кадров
Идентификатор кодека : V_MPEG4/ISO/AVC
Продолжительность : 1 ч. 52 м.
Битрейт : 2250 Кбит/сек
Ширина : 1152 пикселя
Высота : 488 пикселей
Соотношение сторон : 2,35:1
Режим частоты кадров : Постоянный
Частота кадров : 23,976 кадра/сек
Цветовое пространство : YUV
Субдискретизация насыщенности : 4:2:0
Битовая глубина : 8 бит
Тип развёртки : Прогрессивная
Бит/(Пиксели*Кадры) : 0.167
Размер потока : 1,72 Гбайт (68%)
Заголовок : Doom
Библиотека кодирования : x264 core 125 r2208 d9d2288
Настройки программы : cabac=1 / ref=8 / deblock=1:-1:-1 / analyse=0x3:0x133 / me=umh / subme=9 / psy=1 / psy_rd=1.00:0.10 / mixed_ref=1 / me_range=32 / chroma_me=1 / trellis=2 / 8x8dct=1 / cqm=0 / deadzone=21,11 / fast_pskip=0 / chroma_qp_offset=-3 / threads=6 / lookahead_threads=1 / sliced_threads=0 / nr=0 / decimate=1 / interlaced=0 / bluray_compat=0 / constrained_intra=0 / bframes=3 / b_pyramid=2 / b_adapt=2 / b_bias=0 / direct=3 / weightb=1 / open_gop=0 / weightp=2 / keyint=250 / keyint_min=25 / scenecut=40 / intra_refresh=0 / rc_lookahead=60 / rc=2pass / mbtree=1 / bitrate=2250 / ratetol=1.0 / qcomp=0.60 / qpmin=0 / qpmax=69 / qpstep=4 / cplxblur=20.0 / qblur=0.5 / ip_ratio=1.40 / aq=1:1.00
Язык : English
Default : Да
Forced : Нет

Аудио #1
Идентификатор : 2
Формат : AC-3
Формат/Информация : Audio Coding 3
Расширение режима : CM (complete main)
Параметр Endianness формата : Big
Идентификатор кодека : A_AC3
Продолжительность : 1 ч. 52 м.
Вид битрейта : Постоянный
Битрейт : 384 Кбит/сек
Каналы : 6 каналов
Расположение каналов : Front: L C R, Side: L R, LFE
Частота : 48,0 КГц
Битовая глубина : 16 бит
Метод сжатия : С потерями
Размер потока : 310 Мбайт (12%)
Заголовок : Авторский, А.Гаврилов
Язык : Russian
Default : Да
Forced : Нет

Аудио #2
Идентификатор : 3
Формат : AC-3
Формат/Информация : Audio Coding 3
Расширение режима : CM (complete main)
Параметр Endianness формата : Big
Идентификатор кодека : A_AC3
Продолжительность : 1 ч. 52 м.
Вид битрейта : Постоянный
Битрейт : 384 Кбит/сек
Каналы : 6 каналов
Расположение каналов : Front: L C R, Side: L R, LFE
Частота : 48,0 КГц
Битовая глубина : 16 бит
Метод сжатия : С потерями
Размер потока : 310 Мбайт (12%)
Заголовок : Авторский, А.Матвеев «Doctor Joker»
Язык : Russian
Default : Нет
Forced : Нет

Аудио #3
Идентификатор : 4
Формат : AC-3
Формат/Информация : Audio Coding 3
Расширение режима : CM (complete main)
Параметр Endianness формата : Big
Идентификатор кодека : A_AC3
Продолжительность : 1 ч. 52 м.
Вид битрейта : Постоянный
Битрейт : 192 Кбит/сек
Каналы : 2 канала
Расположение каналов : Front: L R
Частота : 48,0 КГц
Битовая глубина : 16 бит
Метод сжатия : С потерями
Размер потока : 155 Мбайт (6%)
Заголовок : Двуголосый закадровый, студия «Tycoon»
Язык : Russian
Default : Нет
Forced : Нет



Скачать Дум.Doom.(Анджей.Бартковяк).[2005.ужасы.фантастика.боевик.триллер.приключения.BDRip-AVC].[AVO.(А.Гаврилов.А.Матвеев)]x2+[DVO].torrent без регистрации
Золото ЗОЛОТАЯ РАЗДАЧА! СКАЧАННОЕ НЕ ЗАСЧИТЫВАЕТСЯ! Золото
Дата: Зарегистрирован   [ Тип: внутренний ] Как тут cкачать?
MAGNET ссылка
MAGNET ссылка


Скачать .torrent

13 KB

Статус: проверено DHT
Скачан: торрент - 125 раз, раздача полностью - 117 раз
Размер: 2,53 GB
Оценка:  - (Голосов: 0)
Поблагодарили: 2
Поделиться ссылкой на эту раздачу с друзьями:
В контактеFacebookОдноклассникиTwitterLivejournalМой МирLiveinternet
 

 
Показать сообщения:    


Вы не можете начинать темы
Вы не можете отвечать на сообщения
Вы не можете редактировать свои сообщения
Вы не можете удалять свои сообщения
Вы не можете голосовать в опросах
Вы не можете прикреплять файлы к сообщениям
Вы можете скачивать файлы