Loading...
Error

Скачать Черное зеркало / Black Mirror (сезон 1-2, серии 1-6 из 6) [2011, Драма, Триллер, Фантастика, WEB-DLRip] [MVO Кубик в Кубе]+[Original] торрент без регистрации

 
Статистика раздачи
Размер:  4,21 GB   |    Скачан:  487 раз
Сидов:  1  [  0 KB/s  ]  
 
Автор Сообщение

Shara

[] 

Черное зеркало 1 и 2 сезон / Черное зеркало (Black Mirror)
Год выпуска: 2011
Страна: Великобритания
Жанр: Драма, Триллер, Фантастика
Продолжительность: 00:45:00
Перевод: Профессиональный (многоголосый закадровый) Кубик в Кубе
Русские субтитры: нет
Режиссёр: Отто Баферст, Эрос Лин, Брайан Уэлш
В ролях: Рори Киннер, Линдси Данкан, Том Гудман-Хилл, Дональд Самптер, Анна Уилсон-Джонс, Дэниэль Кайлууйа, Джессика Браун Файендлер, Руперт Эверетт, Джулия Дэвис, Эшли Томас, Тоби Кеббелл, Джоди Уиттакер, Том Каллен
Описание: Жизнь героев сериала «Черное зеркало» уже находится под всепоглощающим влиянием пока еще новых для нас технологий. Реальный и виртуальный миры чуть ли не сплелись воедино. А человеческий мозг уже не способен справляться со всем количеством информации. Социальные сети расставили свои паутины и ловят в них каждого.
В этой обстановке и раскручиваются сюжеты сериала. В Великобритании похищают принцессу Сюзанну. Премьер-министра ночью поднимают с постели, чтобы озвучить требования похитителей. В видеоролике связанная принцесса просит об освобождении. Чего же хотят за ее жизнь? Денег? Освобождения террористов? Прощения долгов странам третьего мира? Принцессе сложно озвучить... но хотят похитители лишь одного – чтобы премьер-министр Майкл Каллоу в 16.00 в прямом эфире всех спутниковых и наземных телеканалов совершил половой акт… со свиньей. Копии видео заводнили интернет, и вместо одной удаленной появляется шесть новых. Как выкрутиться в этой ситуации бедному премьеру? На что способны спецслужбы, чтобы спасти принцессу?
В другом сюжете все люди уже живут со встроенными чипами. Операция по их вживлению безболезненна. Зато потом ты сможешь прокручивать свою память как кинопленку. Уже нет необходимости рассказывать что-то друзьям, достаточно лишь прокрутить им ролик. А при посадке в самолет продемонстрировать события, которые происходили с тобой за неделю. Если все чисто и никаких преступлений не совершал, то лети туда, куда тебе угодно.
Люди начинают задумываться, а какова жизнь без чипов? Как лучше: с электронной памятью или без нее? Один из таких - Лион. При его исчезновении на 5 дней, его девушка уже на четвертый день ему изменила. Парень буквально живет своим прошлым, постоянно прокручивая картины счастливых моментов из памяти. Удастся ли Лиону стать по-настоящему счастливым уже сейчас, в реальной жизни?
Загляните в «Черное зеркало», а, может, и вы переосмыслите свою жизнь?
Внимание!
Присутствует ненормативная лексика.

2 сезон Видео : 704x352, 624х352
Сэмпл: http://multi-up.com/980344
Качество: WEB-DLRip
Формат: AVI
Видео кодек: XviD
Аудио кодек: AC3, MPEG Audio
Видео: 1 сезон XVID, 720x400, 16:9, 25.000 fps, 2000 kbps, 0.278 bit/pixel 2 сезон XviD, 704x352, 624x352 , 25.000 fps,1524 Kbps 0.246 bit/pixel
Аудио: Русский перевод Кубик в Кубе, Format : AC-3 ,2 channels, 192 Kbps 2 сезон MPEG Audio, 2 channels
1 сезон
Format : AVI
Format/Info : Audio Video Interleave
File size : 768 MiB
Duration : 44mn 47s
Overall bit rate : 2 398 Kbps
Writing application : VirtualDubMod 1.5.10.2 (build 2540/release)
Writing library : VirtualDubMod build 2540/release
Video
ID : 0
Format : MPEG-4 Visual
Format profile : Advanced Simple@L5
Format settings, BVOP : 1
Format settings, QPel : No
Format settings, GMC : No warppoints
Format settings, Matrix : Custom
Codec ID : XVID
Codec ID/Hint : XviD
Duration : 44mn 47s
Bit rate : 2 000 Kbps
Width : 720 pixels
Height : 400 pixels
Display aspect ratio : 16:9
Frame rate : 25.000 fps
Color space : YUV
Chroma subsampling : 4:2:0
Bit depth : 8 bits
Scan type : Progressive
Compression mode : Lossy
Bits/(Pixel*Frame) : 0.278
Stream size : 641 MiB (83%)
Writing library : XviD 1.2.1 (UTC 2008-12-04)
Audio #1
ID : 1
Format : AC-3
Format/Info : Audio Coding 3
Mode extension : CM (complete main)
Format settings, Endianness : Big
Codec ID : 2000
Duration : 44mn 47s
Bit rate mode : Constant
Bit rate : 192 Kbps
Channel(s) : 2 channels
Channel positions : Front: L R
Sampling rate : 48.0 KHz
Bit depth : 16 bits
Compression mode : Lossy
Stream size : 61.5 MiB (8%)
Alignment : Split accross interleaves
Interleave, duration : 40 ms (1.00 video frame)
Interleave, preload duration : 500 ms
Audio #2
ID : 2
Format : AC-3
Format/Info : Audio Coding 3
Mode extension : CM (complete main)
Format settings, Endianness : Big
Codec ID : 2000
Duration : 44mn 47s
Bit rate mode : Constant
Bit rate : 192 Kbps
Channel(s) : 2 channels
Channel positions : Front: L R
Sampling rate : 48.0 KHz
Bit depth : 16 bits
Compression mode : Lossy
Stream size : 61.5 MiB (8%)
Alignment : Split accross interleaves
Interleave, duration : 40 ms (1.00 video frame)
Interleave, preload duration : 500 ms
2 сезон
General
Complete name : D:\КИНО\Black Mirror\Black Mirror s02 Kybik v Kybe\Black.Mirror.s02e01.rus.eng.Kybik.v.Kybe.avi
Format : AVI
Format/Info : Audio Video Interleave
File size : 686 MiB
Duration : 48mn 18s
Overall bit rate : 1 986 Kbps
Writing application : VirtualDubMod 1.5.10.2 (build 2540/release)
Writing library : VirtualDubMod build 2540/release
Video
ID : 0
Format : MPEG-4 Visual
Format profile : Advanced Simple@L5
Format settings, BVOP : 1
Format settings, QPel : No
Format settings, GMC : No warppoints
Format settings, Matrix : Default (MPEG)
Codec ID : XVID
Codec ID/Hint : XviD
Duration : 48mn 18s
Bit rate : 1 524 Kbps
Width : 704 pixels
Height : 352 pixels
Display aspect ratio : 2.000
Frame rate : 25.000 fps
Color space : YUV
Chroma subsampling : 4:2:0
Bit depth : 8 bits
Scan type : Progressive
Compression mode : Lossy
Bits/(Pixel*Frame) : 0.246
Stream size : 527 MiB (77%)
Writing library : XviD 65
Audio #1
ID : 1
Format : MPEG Audio
Format version : Version 1
Format profile : Layer 3
Codec ID : 55
Codec ID/Hint : MP3
Duration : 48mn 18s
Bit rate mode : Constant
Bit rate : 224 Kbps
Channel(s) : 2 channels
Sampling rate : 48.0 KHz
Compression mode : Lossy
Stream size : 77.4 MiB (11%)
Alignment : Aligned on interleaves
Interleave, duration : 40 ms (1.00 video frame)
Interleave, preload duration : 504 ms
Audio #2
ID : 2
Format : MPEG Audio
Format version : Version 1
Format profile : Layer 3
Mode : Joint stereo
Mode extension : MS Stereo
Codec ID : 55
Codec ID/Hint : MP3
Duration : 48mn 18s
Bit rate mode : Constant
Bit rate : 224 Kbps
Channel(s) : 2 channels
Sampling rate : 48.0 KHz
Compression mode : Lossy
Stream size : 77.4 MiB (11%)
Alignment : Aligned on interleaves
Interleave, duration : 40 ms (1.00 video frame)
Interleave, preload duration : 504 ms
Writing library : LAME3.99r
Encoding settings : -m j -V 4 -q 2 -lowpass 19.4 -b 224



Скачать Черное.зеркало.Black.Mirror.(сезон.1-2.серии.1-6.из.6).[2011.Драма.Триллер.Фантастика.WEB-DLRip].[MVO.Кубик.в.Кубе]+[Original].torrent без регистрации
Золото ЗОЛОТАЯ РАЗДАЧА! СКАЧАННОЕ НЕ ЗАСЧИТЫВАЕТСЯ! Золото
Дата: Зарегистрирован   [ Тип: внутренний ] Как тут cкачать?
MAGNET ссылка
MAGNET ссылка


Скачать .torrent

12 KB

Статус: проверено DHT
Скачан: торрент - 487 раз, раздача полностью - 1079 раз
Размер: 4,21 GB
Оценка:  3 (Голосов: 2)
Поблагодарили: 5
Поделиться ссылкой на эту раздачу с друзьями:
В контактеFacebookОдноклассникиTwitterLivejournalМой МирLiveinternet
 

 
Показать сообщения:    


Вы не можете начинать темы
Вы не можете отвечать на сообщения
Вы не можете редактировать свои сообщения
Вы не можете удалять свои сообщения
Вы не можете голосовать в опросах
Вы не можете прикреплять файлы к сообщениям
Вы можете скачивать файлы