Loading...
Error

Скачать Обличитель / Tell-Tale (Майкл Куэста) [2009, фантастика, триллер, драма, BDRip-AVC] [DVO] торрент без регистрации

 
Статистика раздачи
Размер:  1,45 GB   |    Скачан:  135 раз

Полного источника не было: 22 минуты

 
Автор Сообщение

Marsianka

[] 

Обличитель / Tell-Tale (2009) BDRip-AVC

Информация о фильме
Название: Обличитель
Оригинальное название: Tell-Tale
Год выхода: 2009
Жанр: фантастика, триллер, драма
Режиссер: Майкл Куэста

В ролях: Джош Лукас, Лина Хиди, Брайан Кокс, Беатрис Миллер, Джэми Харольд, Майкл К. Уильямс, Пабло Шрайбер, Том Риис Фаррелл, Ульрих Томсен, Даллас Робертс, Пег Хольцмер, Скотт Уинтерс, Кара Ланд, Джон Тимоти Ботка...

О фильме: Главному герою фильма пересаживают чужое сердце, после чего, спустя некоторое время, он начинает ощущать головные боли и видеть видения, сопровождающиеся сердечными приступами. Начатое расследование открывает тайну — герою пересадили сердце убитого человека, и оно настоятельно желает исполнения правосудия от своего нового носителя…



Страна: Великобритания, США
Продолжительность: 01:32:22
Перевод: Профессиональный (двухголосый закадровый) студия NLS

Файл
Кодек: x.264
Качество: BDRip-AVC
Видео: 1024x432 (2,40:1), 23,976 fps, 2058 kbps, 0.194 bit/pixel
Звук: 48 kHz, AC3 Dolby Digital, 2 ch, ~192.00 kbps

Общее
Уникальный идентификатор : 219835717654250329907173677644399695394 (0xA562D1B3A8853A639237C1BE10CAD622)
Полное имя : D:Tell-Tale.2009.BDRip-AVC.mkv
Формат : Matroska
Версия формата : Version 4 / Version 2
Размер файла : 1,45 Гбайт
Продолжительность : 1 ч. 32 м.
Общий поток : 2250 Кбит/сек
Название фильма : Обличитель / Tell-Tale (2009) BDRip-AVC rip by Rulya74
Дата кодирования : UTC 2014-12-23 15:21:58
Программа кодирования : mkvmerge v7.4.0 ('Circles') 64bit built on Dec 12 2014 12:19:56
Библиотека кодирования : libebml v1.3.0 + libmatroska v1.4.1
DURATION : 01:32:19.936000000
NUMBER_OF_FRAMES : 173123
NUMBER_OF_BYTES : 132958464
_STATISTICS_WRITING_APP : mkvmerge v7.4.0 ('Circles') 64bit built on Dec 12 2014 12:19:56
_STATISTICS_WRITING_DATE_UTC : 2014-12-23 15:21:58
_STATISTICS_TAGS : BPS DURATION NUMBER_OF_FRAMES NUMBER_OF_BYTES

Видео
Идентификатор : 1
Формат : AVC
Формат/Информация : Advanced Video Codec
Профиль формата : High@L4.1
Параметр CABAC формата : Да
Параметр ReFrames формата : 11 кадров
Идентификатор кодека : V_MPEG4/ISO/AVC
Продолжительность : 1 ч. 32 м.
Битрейт : 2058 Кбит/сек
Ширина : 1024 пикселя
Высота : 432 пикселя
Соотношение сторон : 2,40:1
Режим частоты кадров : Постоянный
Частота кадров : 23,976 кадра/сек
Цветовое пространство : YUV
Субдискретизация насыщенности : 4:2:0
Битовая глубина : 8 бит
Тип развёртки : Прогрессивная
Бит/(Пиксели*Кадры) : 0.194
Размер потока : 1,30 Гбайт (89%)
Библиотека кодирования : x264 core 142 r2431 ac76440
Настройки программы : cabac=1 / ref=11 / deblock=1:-1:-1 / analyse=0x3:0x113 / me=umh / subme=11 / psy=1 / psy_rd=1.00:0.00 / mixed_ref=1 / me_range=48 / chroma_me=1 / trellis=2 / 8x8dct=1 / cqm=0 / deadzone=21,11 / fast_pskip=0 / chroma_qp_offset=-2 / threads=8 / lookahead_threads=1 / sliced_threads=0 / nr=0 / decimate=1 / interlaced=0 / bluray_compat=0 / constrained_intra=0 / bframes=7 / b_pyramid=2 / b_adapt=2 / b_bias=0 / direct=3 / weightb=1 / open_gop=0 / weightp=2 / keyint=240 / keyint_min=23 / scenecut=40 / intra_refresh=0 / rc_lookahead=40 / rc=2pass / mbtree=1 / bitrate=2058 / ratetol=1.0 / qcomp=0.60 / qpmin=0 / qpmax=69 / qpstep=4 / cplxblur=20.0 / qblur=0.5 / vbv_maxrate=62500 / vbv_bufsize=78125 / nal_hrd=none / filler=0 / ip_ratio=1.40 / aq=1:1.00
Default : Да
Forced : Нет

Аудио
Идентификатор : 2
Формат : AC-3
Формат/Информация : Audio Coding 3
Расширение режима : CM (complete main)
Параметр Endianness формата : Big
Идентификатор кодека : A_AC3
Продолжительность : 1 ч. 32 м.
Вид битрейта : Постоянный
Битрейт : 192 Кбит/сек
Каналы : 2 канала
Расположение каналов : Front: L R
Частота : 48,0 КГц
Битовая глубина : 16 бит
Метод сжатия : С потерями
Размер потока : 127 Мбайт (9%)
Заголовок : Профессиональный (двухголосый закадровый) студия NLS
Язык : Russian
Default : Да
Forced : Нет



Скачать Обличитель.Tell-Tale.(Майкл.Куэста).[2009.фантастика.триллер.драма.BDRip-AVC].[DVO].torrent без регистрации
Золото ЗОЛОТАЯ РАЗДАЧА! СКАЧАННОЕ НЕ ЗАСЧИТЫВАЕТСЯ! Золото
Дата: Зарегистрирован   [ Тип: внутренний ] Как тут cкачать?
MAGNET ссылка
MAGNET ссылка


Скачать .torrent

15 KB

Статус: проверено DHT
Скачан: торрент - 135 раз, раздача полностью - 45 раз
Размер: 1,45 GB
Оценка:  - (Голосов: 0)
Поблагодарили: 2
Поделиться ссылкой на эту раздачу с друзьями:
В контактеFacebookОдноклассникиTwitterLivejournalМой МирLiveinternet
 

 
Показать сообщения:    


Вы не можете начинать темы
Вы не можете отвечать на сообщения
Вы не можете редактировать свои сообщения
Вы не можете удалять свои сообщения
Вы не можете голосовать в опросах
Вы не можете прикреплять файлы к сообщениям
Вы можете скачивать файлы