Loading...
Error

Скачать Гремлины 2: Новенькая партия / Gremlins 2: The New Batch (Джо Данте / Joe Dante) [1990, фэнтези, комедия, BDRip] [Dub] (Варус Видео) + [Orig Eng] торрент без регистрации

 
Статистика раздачи
Размер:  2,05 GB   |    Скачан:  130 раз

Полного источника не было: 26 минут

 
Автор Сообщение

leon030982

[] 

Гремлины 2: Новенькая партия / Gremlins 2: The New Batch


Год выпуска: 1990
Страна: США
Жанр: фэнтези, комедия
Продолжительность: 01:46:26
Перевод: Профессиональный (дублированный) [Варус Видео]
Cубтитры: нет
Оригинальная аудиодорожка: английский

Режиссер: Джо Данте / Joe Dante

В ролях: Зэк Гэллиган, Фиби Кейтс, Джон Гловер, Роберт Проски, Роберт Пикардо, Кристофер Ли, Хэвиленд Моррис, Дик Миллер, Джеки Джозеф, Гедде Ватанабе...
Описание: На этот раз пушистый зверек Могвай прибывает в Нью-Йорк - и снова беспечные люди нарушают условия его содержания... И вот сотни гремлинов захватывают огромный телецентр и наводят ужас на весь город. А справиться с ними по силам лишь тем, кто выжил после первой части: они знают, что гремлинов трудно, но можно победить...

Сэмпл

Качество видео: BDRip Исходник Blu-Ray Remux (hdreactor)
Формат видео: AVI
Видео: 720x400 (1.80:1), 23.976 fps, XviD build 65 ~2111 kbps avg, 0.30 bit/pixel
Аудио 1: 48 kHz, AC3 Dolby Digital, 2/0 (L,R) ch, ~192 kbps Rus
Аудио 2: 48 kHz, AC3 Dolby Digital, 3/2 (L,C,R,l,r) + LFE ch, ~448 kbps Eng
General
Complete name : D:\ФИЛЬМЫ\Новая папка\Gremlins 2.avi
Format : AVI
Format/Info : Audio Video Interleave
Format profile : OpenDML
File size : 2.05 GiB
Duration : 1h 46mn
Overall bit rate : 2 758 Kbps
Writing application : VirtualDubMod 1.5.10.3 (build 2550/release)
Writing library : VirtualDubMod build 2550/release
Video
ID : 0
Format : MPEG-4 Visual
Format profile : Advanced Simple@L5
Format settings, BVOP : 1
Format settings, QPel : No
Format settings, GMC : No warppoints
Format settings, Matrix : Default (H.263)
Codec ID : XVID
Codec ID/Hint : XviD
Duration : 1h 46mn
Bit rate : 2 100 Kbps
Width : 720 pixels
Height : 400 pixels
Display aspect ratio : 16:9
Frame rate : 23.976 fps
Color space : YUV
Chroma subsampling : 4:2:0
Bit depth : 8 bits
Scan type : Progressive
Compression mode : Lossy
Bits/(Pixel*Frame) : 0.304
Stream size : 1.56 GiB (76%)
Writing library : XviD 65
Audio #1
ID : 1
Format : AC-3
Format/Info : Audio Coding 3
Mode extension : CM (complete main)
Format settings, Endianness : Big
Codec ID : 2000
Duration : 1h 46mn
Bit rate mode : Constant
Bit rate : 192 Kbps
Channel(s) : 2 channels
Channel positions : Front: L R
Sampling rate : 48.0 KHz
Bit depth : 16 bits
Compression mode : Lossy
Stream size : 146 MiB (7%)
Alignment : Split accross interleaves
Interleave, duration : 42 ms (1.00 video frame)
Interleave, preload duration : 500 ms
Audio #2
ID : 2
Format : AC-3
Format/Info : Audio Coding 3
Mode extension : CM (complete main)
Format settings, Endianness : Big
Codec ID : 2000
Duration : 1h 46mn
Bit rate mode : Constant
Bit rate : 448 Kbps
Channel(s) : 6 channels
Channel positions : Front: L C R, Side: L R, LFE
Sampling rate : 48.0 KHz
Bit depth : 16 bits
Compression mode : Lossy
Stream size : 341 MiB (16%)
Alignment : Split accross interleaves
Interleave, duration : 42 ms (1.00 video frame)
Interleave, preload duration : 500 ms



Скачать Гремлины.2.Новенькая.партия.Gremlins.2.The.New.Batch.(Джо.Данте.Joe.Dante).[1990.фэнтези.комедия.BDRip].[Dub].(Варус.Видео).+.[Orig.Eng].torrent без регистрации
Золото ЗОЛОТАЯ РАЗДАЧА! СКАЧАННОЕ НЕ ЗАСЧИТЫВАЕТСЯ! Золото
Дата: Зарегистрирован   [ Тип: внутренний ] Как тут cкачать?
MAGNET ссылка
MAGNET ссылка


Скачать .torrent

11 KB

Статус: проверено DHT
Скачан: торрент - 130 раз, раздача полностью - 130 раз
Размер: 2,05 GB
Оценка:  5 (Голосов: 1)
Поблагодарили: 0
Поделиться ссылкой на эту раздачу с друзьями:
В контактеFacebookОдноклассникиTwitterLivejournalМой МирLiveinternet
 

 

leon030982

[] 

ag
 
Показать сообщения:    


Вы не можете начинать темы
Вы не можете отвечать на сообщения
Вы не можете редактировать свои сообщения
Вы не можете удалять свои сообщения
Вы не можете голосовать в опросах
Вы не можете прикреплять файлы к сообщениям
Вы можете скачивать файлы