Loading...
Error

Скачать Манхэттен / Manhattan (сезон 01) (Томас Шламми и др.) [2014, драма, WEB-DL] [720p] [MVO (BaibaKo)]+[Eng]+[Sub (Rus, Eng)] торрент без регистрации

 
Статистика раздачи
Размер:  21,14 GB   |    Скачан:  2312 раз
Сидов:  1  [  0 KB/s  ]  
 
Автор Сообщение

МихаНЕзатор

[] 

Информация о фильме
Название: Манхэттен
Оригинальное название: Manhattan
Год выхода: 2014
Жанр: драма
Режиссер: Томас Шламми, Пэрис Барклай, Билл Д’Элиа

В ролях: Алексия Фаст, Джон Бенжамин Хикки, Кристофер Денэм, Дэниел Стерн, Майкл Чернус, Оливия Уильямс, Эшли Цукерман, Альма Сиснерос

О фильме: Действие драматического сериала начинается во время Второй мировой войны, в начале 1940-х годов прошлого века. Американское правительство создает особую программу по разработке ядерного оружия — «Проект „Манхэттен“». К работе привлекаются самые опытные ученые разных специальностей, которых вербуют и переправляют в пустыню Нью-Мексико, в Лос-Аламос. Возглавляет сложную и опасную работу лаборатории профессор Фрэнк Уинтер (Джон Бенджамин Хикки). Участникам проекта каждый день приходится идти на сделку со своей совестью, выбирая между моральными ценностями и долгом, скрывая правду о своей работе от самых близких людей... Сериал «Манхэттен» основан на реальных событиях.



Страна: США
Продолжительность: ~ 00:56:50
Перевод: Профессиональный (многоголосый закадровый) BaibaKo

Файл
Кодек: MPEG-4 AVC/H.264
Качество: 720p WEB-DL
Видео: AVC 3895 Кбит/сек 1280x718 (1.783) 23.976 кадр/сек
Звук:
Аудио rus: AC-3 6 каналов 48,0 КГц 384 Кбит/сек | BaibaKo
Аудио eng: AC-3 6 каналов 48,0 КГц 384 Кбит/сек
Субтитры: отсутствуют

АНОНСЫ ПОПУЛЯРНЫХ РАЗДАЧ


02.02.2015 г. торрент обновлён, добавлена 13-я серия!

Релиз-группа: BaibaKo
Перевод: vipere
Озвучка: Лира Грим, Елена Григорьева, Дмитрий Глебов, Виталий Ткаченко и Дмитрий Нежельский
Монтаж: Виталий Ткаченко

01. You Always Hurt the One You Love / Ты всегда ранишь того, кого любишь
02. The Prisoner's Dilemma / Дилемма заключённого
03. The Hive / Улей
04. Last Reasoning of Kings / Последний довод королей
05. A New Approach to Nuclear Cosmology / Новый подход к ядерной космологии
06. Acceptable Limits / Допустимые пределы
07. The New World / Новый мир
08. The Second Coming / Второе пришествие
09. Spooky Action at a Distance / Жуткое дальнодействие
10. The Understudy / Второй состав
11. Танжер / Tangier
12. The Gun Model / Пушечная модель
13. Perestroika / Перестройка

General
Unique ID : 240187352761225794975712448549996319427 (0xB4B266C85988E56CA8B9016BA261D2C3)
Complete name : G:FilmsManhattanManhattan.s01e01.HD720p.WEB-DL.Rus-Eng.BaibaKo.tv.mkv
Format : Matroska
Format version : Version 4 / Version 2
File size : 1.89 GiB
Duration : 56mn 50s
Overall bit rate : 4 758 Kbps
Encoded date : UTC 2014-08-03 09:35:17
Writing application : mkvmerge v6.7.0 ('Back to the Ground') 64bit built on Jan 8 2014 15:10:52
Writing library : libebml v1.3.0 + libmatroska v1.4.1

Video
ID : 1
Format : AVC
Format/Info : Advanced Video Codec
Format profile : High@L3.1
Format settings, CABAC : No
Format settings, ReFrames : 2 frames
Format settings, GOP : N=1
Codec ID : V_MPEG4/ISO/AVC
Duration : 56mn 50s
Bit rate : 3 895 Kbps
Width : 1 280 pixels
Height : 718 pixels
Display aspect ratio : 16:9
Frame rate mode : Constant
Frame rate : 23.976 fps
Color space : YUV
Chroma subsampling : 4:2:0
Bit depth : 8 bits
Scan type : Progressive
Bits/(Pixel*Frame) : 0.177
Stream size : 1.55 GiB (82%)
Language : English
Default : Yes
Forced : No
Color primaries : BT.709
Transfer characteristics : BT.709
Matrix coefficients : BT.709

Audio #1
ID : 2
Format : AC-3
Format/Info : Audio Coding 3
Mode extension : CM (complete main)
Format settings, Endianness : Big
Codec ID : A_AC3
Duration : 56mn 50s
Bit rate mode : Constant
Bit rate : 384 Kbps
Channel(s) : 6 channels
Channel positions : Front: L C R, Side: L R, LFE
Sampling rate : 48.0 KHz
Bit depth : 16 bits
Compression mode : Lossy
Stream size : 156 MiB (8%)
Language : Russian
Default : Yes
Forced : No

Audio #2
ID : 3
Format : AC-3
Format/Info : Audio Coding 3
Mode extension : CM (complete main)
Format settings, Endianness : Big
Codec ID : A_AC3
Duration : 56mn 50s
Bit rate mode : Constant
Bit rate : 384 Kbps
Channel(s) : 6 channels
Channel positions : Front: L C R, Side: L R, LFE
Sampling rate : 48.0 KHz
Bit depth : 16 bits
Compression mode : Lossy
Stream size : 156 MiB (8%)
Language : English
Default : No
Forced : No

Когда раздача ведётся путём добавления новых серий, при каждом добавлении создётся новый торрент. Чтобы начать докачку новой серии, пользователям необходимо сделать следующее:
(1) остановить скачивание,
(2) удалить старый торрент у себя из клиента (старые серии удалять не надо),
(3) скачать новый торрент и запустить его у себя в клиенте вместо старого, при этом указать клиенту путь в старую папку, куда и должно происходить скачивание новых серий.
Ваш клиент при этом должен произвести хеширование (проверку) старой папки (если не производит сам - помогите ему сделать это), и будет докачивать только те серии, которых у вас ещё нет. Старые серии при этом не удаляются, а продолжают раздаваться!
Eсли вы уже удалили старые серии, то предотвратить повторную закачку старых серий можно, отжав галочку в соответсвующих местах при запуске нового торрента. По возможности, желательно не удалять старые серии как можно дольше, чтобы релизёр не столько продолжал раздавать старые серии, а смог сконцентрироваться на новых.



Скачать Манхэттен.Manhattan.(сезон.01).(Томас.Шламми.и.др.).[2014.драма.WEB-DL].[720p].[MVO.(BaibaKo)]+[Eng]+[Sub.(Rus.Eng)].torrent без регистрации
Золото ЗОЛОТАЯ РАЗДАЧА! СКАЧАННОЕ НЕ ЗАСЧИТЫВАЕТСЯ! Золото
Дата: Зарегистрирован   [ Тип: внутренний ] Как тут cкачать?
MAGNET ссылка
MAGNET ссылка


Скачать .torrent

55 KB

Статус: проверено DHT
Скачан: торрент - 2312 раз, раздача полностью - 5 раз
Размер: 21,14 GB
Оценка:  - (Голосов: 0)
Поблагодарили: 0
Поделиться ссылкой на эту раздачу с друзьями:
В контактеFacebookОдноклассникиTwitterLivejournalМой МирLiveinternet
 

 

МихаНЕзатор

[] 

Раздача обровлена
 
Показать сообщения:    


Вы не можете начинать темы
Вы не можете отвечать на сообщения
Вы не можете редактировать свои сообщения
Вы не можете удалять свои сообщения
Вы не можете голосовать в опросах
Вы не можете прикреплять файлы к сообщениям
Вы можете скачивать файлы