Loading...
Error

Скачать Взвод / Platoon (Оливер Стоун) [1986, драма, военный, BDRip-AVC] [Dub]+[MVO] торрент без регистрации

 
Статистика раздачи
Размер:  2,18 GB   |    Скачан:  131 раз
Сидов:  1  [  0 KB/s  ]  
 
Автор Сообщение

Marsianka

[] 

Страна: Великобритания, США
Жанр: драма, военный
Год выхода: 1986
Продолжительность: 01:59:50
Перевод:
Профессиональный (дублированный) Варус-видео (Remastered)
Профессиональный (многоголосый закадровый) РТР (Remastered)
Режиссер: Оливер Стоун / Oliver Stone

В ролях: Том Беренджер, Уиллем Дефо,Чарли Шин, Форест Уитакер, Франческо Куинн, Джон К. МакГинли, Ричард Эдсон, Кевин Диллон, Реджи Джонсон, Кит Дэвид, Джонни Депп, Дэвид Найдорф, Марк Мозес, Крис Пидерсен, Тони Тодд, Корки Форд, Иван Кэйн, Пол Санчез, Дж. Адам Гловер, Кори Гловер, Боб Орвиг

О фильме:
Молодой новобранец сталкивается с моральным кризисом во Вьетнаме,когда вокруг лицемерие является частью ужаса войны.

Были синхронизированы и полностью обработаны оба перевода.Удалёны шумы,щелчки и другие помехи которые присутствовали в оригиналах.Звук в общем был полностью переработан.
Качество: BDRip-AVC
Формат видео: MKV
Видео: 720x390 (1.85:1) , 23.976 fps. , H.264 ~2425 kbps avg, 0.297 bit/pixel
Аудио: 24 kHz, AC3, 2/0 (L,R) ch, 112.00 kbps, Dub
Аудио: 24 kHz, AC3, 2/0 (L,R) ch, 112.00 kbps, Mvo
Сэмпл

General
Unique ID : 192673263387577290617566791904033876662 (0x90F3854F7C2705F7BD62A3FCCFC5AAB6)
Complete name : E:Взвод.mkv
Format : Matroska
Format version : Version 4 / Version 2
File size : 2.18 GiB
Duration : 1h 59mn
Overall bit rate : 2 610 Kbps
Encoded date : UTC 2015-01-08 13:09:32
Writing application : mkvmerge v7.1.0 ('Good Love') 32bit built on Jul 27 2014 12:59:18
Writing library : Lavf55.12.0
DURATION : 01:59:49.888000000
NUMBER_OF_FRAMES : 224684
NUMBER_OF_BYTES : 100658432
_STATISTICS_WRITING_APP : mkvmerge v7.1.0 ('Good Love') 32bit built on Jul 27 2014 12:59:18
_STATISTICS_WRITING_DATE_UT : 2015-01-08 13:09:32
_STATISTICS_TAGS : BPS DURATION NUMBER_OF_FRAMES NUMBER_OF_BYTES

Video
ID : 1
Format : AVC
Format/Info : Advanced Video Codec
Format profile : Main@L4.0
Format settings, CABAC : Yes
Format settings, ReFrames : 4 frames
Codec ID : V_MPEG4/ISO/AVC
Duration : 1h 59mn
Bit rate : 2 425 Kbps
Width : 720 pixels
Height : 390 pixels
Display aspect ratio : 1.85:1
Frame rate mode : Constant
Frame rate : 23.976 fps
Color space : YUV
Chroma subsampling : 4:2:0
Bit depth : 8 bits
Scan type : Progressive
Bits/(Pixel*Frame) : 0.360
Stream size : 1.95 GiB (89%)
Title : Platoon
Writing library : x264 core 142 r2479 dd79a61
Encoding settings : cabac=1 / ref=1 / deblock=1:0:0 / analyse=0x1:0x111 / me=hex / subme=2 / psy=1 / psy_rd=1.00:0.00 / mixed_ref=0 / me_range=16 / chroma_me=1 / trellis=0 / 8x8dct=0 / cqm=0 / deadzone=21,11 / fast_pskip=1 / chroma_qp_offset=0 / threads=3 / lookahead_threads=1 / sliced_threads=0 / nr=0 / decimate=1 / interlaced=0 / bluray_compat=0 / constrained_intra=0 / bframes=3 / b_pyramid=2 / b_adapt=1 / b_bias=0 / direct=1 / weightb=1 / open_gop=0 / weightp=1 / keyint=240 / keyint_min=24 / scenecut=40 / intra_refresh=0 / rc_lookahead=10 / rc=abr / mbtree=1 / bitrate=2425 / ratetol=1.0 / qcomp=0.60 / qpmin=0 / qpmax=69 / qpstep=4 / vbv_maxrate=20000 / vbv_bufsize=25000 / nal_hrd=none / filler=0 / ip_ratio=1.40 / aq=1:1.00
Default : Yes
Forced : No
Color primaries : BT.709
Transfer characteristics : BT.709
Matrix coefficients : BT.709
Color range : Limited
DURATION : 01:59:49.724000000
NUMBER_OF_FRAMES : 172381
NUMBER_OF_BYTES : 2142506703
_STATISTICS_WRITING_APP : mkvmerge v7.1.0 ('Good Love') 32bit built on Jul 27 2014 12:59:18
_STATISTICS_WRITING_DATE_UT : 2015-01-08 13:09:32
_STATISTICS_TAGS : BPS DURATION NUMBER_OF_FRAMES NUMBER_OF_BYTES

Audio #1
ID : 2
Format : AC-3
Format/Info : Audio Coding 3
Mode extension : CM (complete main)
Format settings, Endianness : Big
Codec ID : A_AC3
Duration : 1h 59mn
Bit rate mode : Constant
Bit rate : 112 Kbps
Channel(s) : 2 channels
Channel positions : Front: L R
Sampling rate : 48.0 KHz
Bit depth : 16 bits
Compression mode : Lossy
Delay relative to video : -83ms
Stream size : 96.0 MiB (4%)
Title : Dub
Language : Russian
Default : Yes
Forced : No

Audio #2
ID : 3
Format : AC-3
Format/Info : Audio Coding 3
Mode extension : CM (complete main)
Format settings, Endianness : Big
Codec ID : A_AC3
Duration : 1h 59mn
Bit rate mode : Constant
Bit rate : 112 Kbps
Channel(s) : 2 channels
Channel positions : Front: L R
Sampling rate : 48.0 KHz
Bit depth : 16 bits
Compression mode : Lossy
Delay relative to video : -83ms
Stream size : 96.0 MiB (4%)
Title : Mvo (РТР)
Language : Russian
Default : No
Forced : No

Menu
00:00:00.000 : :00:00:00.000
00:02:57.218 : :00:02:57.135
00:05:26.659 : :00:05:26.535
00:08:14.702 : :00:08:14.536
00:11:28.604 : :00:11:28.479
00:13:13.751 : :00:13:13.668
00:18:43.372 : :00:18:43.122
00:22:45.030 : :00:22:44.863
00:26:26.126 : :00:26:26.001
00:29:59.672 : :00:29:59.423
00:32:19.020 : :00:32:18.895
00:36:30.855 : :00:36:30.730
00:43:07.543 : :00:43:07.460
00:45:09.498 : :00:45:09.415
00:50:33.155 : :00:50:32.905
00:55:49.638 : :00:55:49.555
00:58:56.241 : :00:58:56.158
01:01:50.665 : :01:01:50.582
01:03:04.947 : :01:03:04.864
01:04:45.464 : :01:04:45.381
01:11:02.633 : :01:11:02.550
01:15:26.980 : :01:15:26.772
01:16:48.562 : :01:16:48.437
01:21:07.445 : :01:21:07.279
01:26:42.572 : :01:26:42.322
01:29:21.105 : :01:29:21.022
01:32:25.665 : :01:32:25.498
01:37:21.877 : :01:37:21.794
01:43:40.380 : :01:43:40.131
01:46:49.569 : :01:46:49.445
01:50:16.735 : :01:50:16.652
01:55:35.178 : :01:55:35.011




приятного просмотра



Скачать Взвод.Platoon.(Оливер.Стоун).[1986.драма.военный.BDRip-AVC].[Dub]+[MVO].torrent без регистрации
Золото ЗОЛОТАЯ РАЗДАЧА! СКАЧАННОЕ НЕ ЗАСЧИТЫВАЕТСЯ! Золото
Дата: Зарегистрирован   [ Тип: внутренний ] Как тут cкачать?
MAGNET ссылка
MAGNET ссылка


Скачать .torrent

12 KB

Статус: проверено DHT
Скачан: торрент - 131 раз, раздача полностью - 42 раз
Размер: 2,18 GB
Оценка:  5 (Голосов: 1)
Поблагодарили: 4
Поделиться ссылкой на эту раздачу с друзьями:
В контактеFacebookОдноклассникиTwitterLivejournalМой МирLiveinternet
 

 
Показать сообщения:    


Вы не можете начинать темы
Вы не можете отвечать на сообщения
Вы не можете редактировать свои сообщения
Вы не можете удалять свои сообщения
Вы не можете голосовать в опросах
Вы не можете прикреплять файлы к сообщениям
Вы можете скачивать файлы