Loading...
Error

Скачать Доставить по назначению / The package (Эндрю Дэвис / Andrew Davis) [1989, Боевик, триллер, драма, криминал, DVDRip] [Dub] (Варус - Видео) торрент без регистрации

 
Статистика раздачи
Размер:  1,36 GB   |    Скачан:  104 раза
Сидов:  1  [  0 KB/s  ]  
 
Автор Сообщение

leon030982

[] 

Доставить по назначению / The package


Год выпуска: 1989
Страна: США
Жанр: Боевик, триллер, драма, криминал
Продолжительность: 01:43:36
Перевод: Профессиональный (дублированный) "[Варус - Видео]"
Роли дублировали: Юрий Саранцев, Любовь Германова, Владимир Антоник, Андрей Ташков, Валентина Ананьина, Владимир Герасимов, Игорь Ясулович, Рудольф Панков, Елена Соловьева, Вадим Курков, Владимир Конкин, Борис Быстров, Сергей Чекан.
Cубтитры: нет

Режиссер: Эндрю Дэвис / Andrew Davis

В ролях: Джин Хэкмен, Джоанна Кэссиди, Томми Ли Джонс, Джон Херд, Дэннис Франц, Пэм Гриер, Кевин Краули, Рон Дин, Натан Дэвис, Челси Росс, Джо Греко, Марко Сент-Джон, Рени Сантони, Майкл Скевес, Джонни Ли Девенпорт, Хуан Рамирес, Мигель Нино, Мик Скриба, Талмус Расулала, Джо Гузалдо, Майкл Томлинсон, Коуди Гленн, Гарри Дж. Ленникс, Карлос Санс, Вильгельм фон Хомбург, Аллен Хэмилтон, Борис Лескин, Дэнни Голдринг, Грегори Алан Уильямс

Описание: По окончании «холодной войны» сверхдержавы СССР и США готовят договор о глобальном сокращении всех видов вооружения. Но группа влиятельных военных приводит в действие тайный заговор с целью сорвать подписание договора. И начинается тайная война. Заказные политические убийства происходят одно за другим. Гибнут невинные люди. Сержант Джонни Галлахер должен доставить в США арестованного, оказавшегося солдатом сил спецназа. Но по прибытии в Вашингтон, «груз» исчезает при загадочных обстоятельствах. Галлахер начинает собственное расследование, в ходе которого узнает о причастности к политическим убийствам сбежавшего арестованного. Джонни Галлахер теперь единственный, кто способен предотвратить новые убийства...



Качество: DVDRip
Формат: AVI
Видео кодек: XvID
Аудио кодек: AC3
Видео: XviD build 50, 720x384 (1.88:1), 25.000 fps, 1676 kbps avg
Аудио: AC3 Dolby Digital, 48 kHz, 2/0 (L,R) ch, 192.00 kbps avg

Цитата:

Оцифровка звука Fikaloid. Работа со звуком alex7691
General
Complete name : D:\Dostavit.рo.naznacheniju.1989\Dostavit.рo.naznacheniju.1989.XviD.DVDRip.avi
Format : AVI
Format/Info : Audio Video Interleave
File size : 1.36 GiB
Duration : 1h 43mn
Overall bit rate : 1 878 Kbps
Writing application : VirtualDubModRus 1.5.10.2 (build 2542/release)
Writing library : VirtualDubMod build 2542/release
Video
ID : 0
Format : MPEG-4 Visual
Format profile : Advanced Simple@L5
Format settings, BVOP : 1
Format settings, QPel : No
Format settings, GMC : No warppoints
Format settings, Matrix : Custom
Codec ID : XVID
Codec ID/Hint : XviD
Duration : 1h 43mn
Bit rate : 1 676 Kbps
Width : 720 pixels
Height : 384 pixels
Display aspect ratio : 1.85:1
Frame rate : 25.000 fps
Original frame rate : 23.976 fps
Color space : YUV
Chroma subsampling : 4:2:0
Bit depth : 8 bits
Scan type : Progressive
Compression mode : Lossy
Bits/(Pixel*Frame) : 0.243
Stream size : 1.22 GiB (90%)
Writing library : XviD 1.2.0.dev47 (UTC 2006-11-01)
Audio
ID : 1
Format : AC-3
Format/Info : Audio Coding 3
Mode extension : CM (complete main)
Format settings, Endianness : Big
Codec ID : 2000
Duration : 1h 40mn
Bit rate mode : Constant
Bit rate : 192 Kbps
Channel(s) : 2 channels
Channel positions : Front: L R
Sampling rate : 48.0 KHz
Bit depth : 16 bits
Compression mode : Lossy
Stream size : 138 MiB (10%)
Alignment : Split accross interleaves
Interleave, duration : 41 ms (1.03 video frame)
Interleave, preload duration : 500 ms
Language : Russian



Скачать Доставить.по.назначению.The.package.(Эндрю.Дэвис.Andrew.Davis).[1989.Боевик.триллер.драма.криминал.DVDRip].[Dub].(Варус.-.Видео).torrent без регистрации
Золото ЗОЛОТАЯ РАЗДАЧА! СКАЧАННОЕ НЕ ЗАСЧИТЫВАЕТСЯ! Золото
Дата: Зарегистрирован   [ Тип: внутренний ] Как тут cкачать?
MAGNET ссылка
MAGNET ссылка


Скачать .torrent

14 KB

Статус: проверено DHT
Скачан: торрент - 104 раз, раздача полностью - 3 раз
Размер: 1,36 GB
Оценка:  - (Голосов: 0)
Поблагодарили: 1
Поделиться ссылкой на эту раздачу с друзьями:
В контактеFacebookОдноклассникиTwitterLivejournalМой МирLiveinternet
 

 
Показать сообщения:    


Вы не можете начинать темы
Вы не можете отвечать на сообщения
Вы не можете редактировать свои сообщения
Вы не можете удалять свои сообщения
Вы не можете голосовать в опросах
Вы не можете прикреплять файлы к сообщениям
Вы можете скачивать файлы