Loading...
Error

Скачать Аббатство Даунтон / Downton Abbey (сезон 01) (Бен Болт, Брайн Персивал, Брайан Келли) [2010, драма, HDRip] [MVO (ТВ3)]+[Eng] торрент без регистрации

 
Статистика раздачи
Размер:  3,73 GB   |    Скачан:  166 раз
Сидов:  1  [  0 KB/s  ]  
 
Автор Сообщение

МихаНЕзатор

[] 

Информация о фильме
Название: Аббатство Даунтон
Оригинальное название: Downton Abbey
Год выхода: 2010
Жанр: драма
Режиссер: Бен Болт, Брайн Персивал, Брайан Келли

В ролях: Хью Бонневилль, Джессика Браун-Финдлэй, Лаура Кармайкл, Джим Картер, Брендан Койл, Мишель Докери, Сиобэн Финнеран, Джоэнн Фрогэтт, Томас Хоус, Rob James-Collier

О фильме: 1912 год. Англия. Наследник титула графа Грэнтэма, живущего с семьей в своем родовом имении Даунтон, погибает на «Титанике». Семья ожидает, что теперь, когда наследников мужского пола не осталось, владения и капитал семьи после смерти графа перейдут к его старшей дочери. Но граф, отдавший всю свою жизнь своему поместью, отказывается отстаивать права юной Мэри, считая, что все, включая немалый капитал его жены, должно отойти к наследнику его графского титула, безвестному дальнему родственнику…



Страна: Великобритания
Продолжительность: ~00:50:00 серия
Перевод: Профессиональный (многоголосый закадровый) ["Русский дубляж"] / Оригинал [английский]

Файл
Кодек: XviD / MP3
Качество: HDTVRip
Видео: XviD, 720x400 (16:9), 23.976 fps, ~1000 kbps, ~0.15 bit/pixel
Звук:
Аудио 1: MP3, 48 kHz, 2 ch, ~192.00 kbps avg ["Русский дубляж"]
Аудио 2: MP3, 48 kHz, 2 ch, ~192.00 kbps avg [Оригинал]

АНОНСЫ ПОПУЛЯРНЫХ РАЗДАЧ
Общее
Полное имя : F:Downton Abbey Season 1 FilmGateDownton.Abbey.s01e01.rus.eng.hdrip.filmgate.tv.avi
Формат : AVI
Формат/Информация : Audio Video Interleave
Размер файла : 631 Мбайт
Продолжительность : 1 ч. 8 м.
Общий поток : 1289 Кбит/сек
Программа кодирования : VirtualDubMod 1.5.10.2 (build 2540/release)
Библиотека кодирования : VirtualDubMod build 2540/release

Видео
Идентификатор : 0
Формат : MPEG-4 Visual
Профиль формата : Advanced Simple@L5
Параметр BVOP формата : 8
Параметр QPel формата : Нет
Параметр GMC формата : Без точки перехода
Параметр матрицы формата : Default (H.263)
Режим смешивания : Сжатый битовый поток
Идентификатор кодека : XVID
Идентификатор кодека/Подсказка : XviD
Продолжительность : 1 ч. 8 м.
Битрейт : 891 Кбит/сек
Ширина : 720 пикс.
Высота : 400 пикс.
Соотношение сторон : 16:9
Частота кадров : 23,976 кадр/сек
Частота кадров в оригинале : 25,000 кадр/сек
Цветовое пространство : YUV
Подвыборка цветности : 4:2:0
Битовая глубина : 8 бит
Тип развёртки : Прогрессивная
Метод сжатия : С потерями
Бит/(Пиксели*Кадры) : 0.129
Размер потока : 436 Мбайт (69%)
Библиотека кодирования : XviD 57

Аудио #1
Идентификатор : 1
Формат : MPEG Audio
Версия формата : Version 1
Профиль формата : Layer 3
Режим : Joint stereo
Расширение режима : MS Stereo
Идентификатор кодека : 55
Идентификатор кодека/Подсказка : MP3
Продолжительность : 1 ч. 8 м.
Вид битрейта : Постоянный
Битрейт : 192 Кбит/сек
Каналы : 2 канала
Частота : 48,0 КГц
Метод сжатия : С потерями
Размер потока : 94,0 Мбайт (15%)
Выравнивание : Соединение по промежуткам
Продолжительность промежутка : 42 мс. (1,00 видеокадр)
Время предзагрузки промежутка : 504 ms
Библиотека кодирования : LAME3.98r
Настройки программы : -m j -V 4 -q 2 -lowpass 18.6 -b 192

Аудио #2
Идентификатор : 2
Формат : MPEG Audio
Версия формата : Version 1
Профиль формата : Layer 3
Режим : Joint stereo
Расширение режима : MS Stereo
Идентификатор кодека : 55
Идентификатор кодека/Подсказка : MP3
Продолжительность : 1 ч. 8 м.
Вид битрейта : Постоянный
Битрейт : 192 Кбит/сек
Каналы : 2 канала
Частота : 48,0 КГц
Метод сжатия : С потерями
Размер потока : 94,0 Мбайт (15%)
Выравнивание : Соединение по промежуткам
Продолжительность промежутка : 42 мс. (1,00 видеокадр)
Время предзагрузки промежутка : 504 ms
Библиотека кодирования : LAME3.98r
Настройки программы : -m j -V 4 -q 2 -lowpass 18.6 -b 192



Скачать Аббатство.Даунтон.Downton.Abbey.(сезон.01).(Бен.Болт.Брайн.Персивал.Брайан.Келли).[2010.драма.HDRip].[MVO.(ТВ3)]+[Eng].torrent без регистрации
Золото ЗОЛОТАЯ РАЗДАЧА! СКАЧАННОЕ НЕ ЗАСЧИТЫВАЕТСЯ! Золото
Дата: Зарегистрирован   [ Тип: внутренний ] Как тут cкачать?
MAGNET ссылка
MAGNET ссылка


Скачать .torrent

20 KB

Статус: проверено DHT
Скачан: торрент - 166 раз, раздача полностью - 183 раз
Размер: 3,73 GB
Оценка:  - (Голосов: 0)
Поблагодарили: 2
Поделиться ссылкой на эту раздачу с друзьями:
В контактеFacebookОдноклассникиTwitterLivejournalМой МирLiveinternet
 

 
Показать сообщения:    


Вы не можете начинать темы
Вы не можете отвечать на сообщения
Вы не можете редактировать свои сообщения
Вы не можете удалять свои сообщения
Вы не можете голосовать в опросах
Вы не можете прикреплять файлы к сообщениям
Вы можете скачивать файлы