Loading...
Error

Скачать Агент Картер / Marvel Agent Carter (сезон 01) (Луис Д’Эспозито и др.) [2015, боевик, приключения, фэнтези, BDRip] [720p] [MVO (LostFilm, Jaskier)]+[Dub (Невафильм)]+[Eng]+[Sub Eng] торрент без регистрации

 
Статистика раздачи
Размер:  23,96 GB   |    Скачан:  145 раз
Сидов:  1  [  0 KB/s  ]  
 
Автор Сообщение

МихаНЕзатор

[] 

Информация о сериале
Название: Агент Картер
Оригинальное название: Agent Carter
Годы выхода: 2015
Жанр: фантастика, боевик, приключения
Авторы идеи: Кристофер Маркус /Christopher Markus/, Стивен МакФили /Stephen McFeely/
Режиссеры: Луис Д’Эспозито /Louis D'Esposito/, Джо Руссо /Joe Russo/, Скотт Уинант /Scott Winant/ и др.

В ролях: Хейли Этвелл /Hayley Atwell/, Джеймс Д’Арси /James D'Arcy/, Чад Майкл Мюррэй /Chad Michael Murray/, Энвер Гьокай /Enver Gjokaj/, Ши Уигхэм /Shea Whigham/, Бриджет Риган /Bridget Regan/, Доминик Купер /Dominic Cooper/, Линдси Фонсека /Lyndsy Fonseca/, Ральф Браун /Ralph Brown/, Меган Фэй /Meagen Fay/ и др.

О сериале: История Пегги Картер. В 1946 году мир нанес Пегги серьезный удар, когда она оказывается в неудобном для нее положении с возвращением домой мужчин со сражений за границей. Работая на секретную организацию СНР (Стратегический Научный Резерв), Пегги должна найти баланс между административной работой и секретными миссиями для Говарда Старка, одновременно пытаясь жить нормальной жизнью одинокой женщины в Америке после утраты любви всей ее жизни — Стива Роджерса.



Страны: США
Студии: ABC Studios / Marvel Television
Продолжительность: 8 x ~ 00:43:00
Перевод:
Профессиональный (многоголосый, закадровый) - LostFilm
Профессиональный (многоголосый, закадровый) - Jaskier
Профессиональный (дублированный) - Невафильм

Релиз от: by marchelush
Рип от DON!

Файл
Кодек: H.264
Качество: BDRip 720p
Видео: 1280x720 at 23.976 fps, x264@L4.1, 2pass, ~5500 kbps avg
Аудио#1: Russian: 48 kHz, DTS, 3/2 (L,C,R,l,r) + LFE ch, ~1509.00 kbps avg |Многоголосый закадровый, LostFilm|
Аудио#2: Russian: 48 kHz, DTS, 3/2 (L,C,R,l,r) + LFE ch, ~1509.00 kbps avg |Многоголосый закадровый, Jaskier|
Аудио#3: Russian: 48 kHz, AC3, 2/0 (L,R) ch, ~192.00 kbps avg |Дублированный, Невафильм|
Аудио#4: English: 48 kHz, DTS, 3/2 (L,C,R,l,r) + LFE ch, ~1509.00 kbps avg |Оригинал|
Субтитры: English (Full)

АНОНСЫ ПОПУЛЯРНЫХ РАЗДАЧ


Торрент обновлён, добавлен многоголосый и дублированый переводы!
General
Complete name : Marvel's.Agent.Carter.S01E01.720p.BDRip.3xRus.Eng.Sub-HDCLUB.mkv
Format : Matroska
Format version : Version 4 / Version 2
File size : 3.05 GiB
Duration : 42mn 40s
Overall bit rate : 10.2 Mbps
Encoded date : UTC 2015-09-28 07:08:57
Writing application : mkvmerge v6.2.0 ('Promised Land') built on Apr 28 2013 12:22:01
Writing library : libebml v1.3.0 + libmatroska v1.4.0

Video
ID : 1
Format : AVC
Format/Info : Advanced Video Codec
Format profile : High@L4.1
Format settings, CABAC : Yes
Format settings, ReFrames : 9 frames
Codec ID : V_MPEG4/ISO/AVC
Duration : 42mn 40s
Bit rate : 5 500 Kbps
Width : 1 280 pixels
Height : 720 pixels
Display aspect ratio : 16:9
Frame rate mode : Constant
Frame rate : 23.976 fps
Color space : YUV
Chroma subsampling : 4:2:0
Bit depth : 8 bits
Scan type : Progressive
Bits/(Pixel*Frame) : 0.249
Stream size : 1.58 GiB (52%)
Writing library : x264 core 148 r2597kMod e86f3a1
Encoding settings : cabac=1 / ref=9 / deblock=1:-3:-3 / analyse=0x3:0x113 / me=umh / subme=11 / psy=1 / fade_compensate=0.00 / psy_rd=1.00:0.00 / mixed_ref=1 / me_range=32 / chroma_me=1 / trellis=2 / 8x8dct=1 / cqm=0 / deadzone=21,11 / fast_pskip=0 / chroma_qp_offset=-3 / threads=12 / lookahead_threads=3 / sliced_threads=0 / nr=0 / decimate=1 / interlaced=0 / bluray_compat=0 / constrained_intra=0 / fgo=0 / bframes=12 / b_pyramid=2 / b_adapt=2 / b_bias=0 / direct=3 / weightb=1 / open_gop=0 / weightp=2 / keyint=240 / keyint_min=23 / scenecut=40 / intra_refresh=0 / rc_lookahead=40 / rc=2pass / mbtree=0 / bitrate=5500 / ratetol=1.0 / qcomp=0.65 / qpmin=0 / qpmax=69 / qpstep=4 / cplxblur=20.0 / qblur=0.5 / vbv_maxrate=50000 / vbv_bufsize=62500 / nal_hrd=none / filler=0 / ip_ratio=1.40 / pb_ratio=1.30 / aq=3:0.85
Language : English
Default : Yes
Forced : No

Audio #1
ID : 2
Format : DTS
Format/Info : Digital Theater Systems
Mode : 16
Format settings, Endianness : Big
Codec ID : A_DTS
Duration : 42mn 40s
Bit rate mode : Constant
Bit rate : 1 509 Kbps
Channel(s) : 6 channels
Channel positions : Front: L C R, Side: L R, LFE
Sampling rate : 48.0 KHz
Bit depth : 24 bits
Compression mode : Lossy
Stream size : 461 MiB (15%)
Title : LostFilm
Language : Russian
Default : Yes
Forced : No

Audio #2
ID : 3
Format : DTS
Format/Info : Digital Theater Systems
Mode : 16
Format settings, Endianness : Big
Codec ID : A_DTS
Duration : 42mn 40s
Bit rate mode : Constant
Bit rate : 1 509 Kbps
Channel(s) : 6 channels
Channel positions : Front: L C R, Side: L R, LFE
Sampling rate : 48.0 KHz
Bit depth : 24 bits
Compression mode : Lossy
Stream size : 461 MiB (15%)
Title : Jaskier
Language : Russian
Default : No
Forced : No

Audio #3
ID : 4
Format : AC-3
Format/Info : Audio Coding 3
Mode extension : CM (complete main)
Format settings, Endianness : Big
Codec ID : A_AC3
Duration : 42mn 40s
Bit rate mode : Constant
Bit rate : 192 Kbps
Channel(s) : 2 channels
Channel positions : Front: L R
Sampling rate : 48.0 KHz
Compression mode : Lossy
Stream size : 58.6 MiB (2%)
Title : НеваФильм
Language : Russian
Default : No
Forced : No

Audio #4
ID : 5
Format : DTS
Format/Info : Digital Theater Systems
Mode : 16
Format settings, Endianness : Big
Codec ID : A_DTS
Duration : 42mn 40s
Bit rate mode : Constant
Bit rate : 1 509 Kbps
Channel(s) : 6 channels
Channel positions : Front: L C R, Side: L R, LFE
Sampling rate : 48.0 KHz
Bit depth : 24 bits
Compression mode : Lossy
Stream size : 461 MiB (15%)
Language : English
Default : No
Forced : No

Text
ID : 6
Format : UTF-8
Codec ID : S_TEXT/UTF8
Codec ID/Info : UTF-8 Plain Text
Language : English
Default : No
Forced : No

Menu
00:00:00.000 : en:00:00:00.000
00:09:32.071 : en:00:09:32.071
00:20:04.829 : en:00:20:04.829
00:25:45.502 : en:00:25:45.502
00:33:16.536 : en:00:33:16.536
00:42:00.893 : en:00:42:00.893
01. Now Is Not the End / Теперь это не конец
02. Bridge and Tunnel / Мост и тоннель
03. Time and Tide / Время и поток
04. The Blitzkrieg Button / Кнопка блицкрига
05. The Iron Ceiling / Железный потолок
06. A Sin to Err / Грех ошибаться
07. SNAFU / Путаница
08. Valediction / Прощание
ЦитатаКто-то писал:
Сохранены оригинальные главы как на Blu-ray.
Отдельное спасибо студии Jaskier за предоставленные голоса.
Студия Jaskier - Роли озвучивали: Анастасия Жаркова (голос из дубляжа), Таисия Тришина, Михаил Кшиштовский, Денис Строев и Сергей Пономарёв.
Работа со звуком - kmarats.



Скачать Агент.Картер.Marvel.Agent.Carter.(сезон.01).(Луис.Д’Эспозито.и.др.).[2015.боевик.приключения.фэнтези.BDRip].[720p].[MVO.(LostFilm.Jaskier)]+[Dub.(Невафильм)]+[Eng]+[Sub.Eng].torrent без регистрации
Золото ЗОЛОТАЯ РАЗДАЧА! СКАЧАННОЕ НЕ ЗАСЧИТЫВАЕТСЯ! Золото
Дата: Зарегистрирован   [ Тип: внутренний ] Как тут cкачать?
MAGNET ссылка
MAGNET ссылка


Скачать .torrent

481 KB

Статус: проверено DHT
Скачан: торрент - 145 раз, раздача полностью - 16 раз
Размер: 23,96 GB
Оценка:  - (Голосов: 0)
Поблагодарили: 2
Поделиться ссылкой на эту раздачу с друзьями:
В контактеFacebookОдноклассникиTwitterLivejournalМой МирLiveinternet
 

 
Показать сообщения:    


Вы не можете начинать темы
Вы не можете отвечать на сообщения
Вы не можете редактировать свои сообщения
Вы не можете удалять свои сообщения
Вы не можете голосовать в опросах
Вы не можете прикреплять файлы к сообщениям
Вы можете скачивать файлы