Loading...
Error

Скачать Мушкетеры / The Musketeers (Пол У. С. Андерсон) [2011, драма, BDRip-HEVC] [1080] [Dub] [3D-Video (OU)] торрент без регистрации

Статистика раздачи
Размер:  9,21 GB   |    Скачан:  156 раз
Сидов:  3  [  0 KB/s  ]  

 
 
 
Автор Сообщение

МихаНЕзатор

[] 

Информация о фильме
Название: Мушкетеры
Оригинальное название: The Three Musketeers
Год выхода: 2011
Жанр: боевик, приключения
Режиссер: Пол У. С. Андерсон

В ролях: Логан Лерман, Милла Йовович, Мэтью Макфейден, Рэй Стивенсон, Люк Эванс, Мадс Миккельсен Габриэлла Уайлд, Джеймс Корден, Джуно Темпл, Фредди Фокс

О фильме: Молодой д’Артаньян покинул родной дом и отправился в Париж, надеясь на место в полку мушкетёров. По случайности в один день он обидел сразу троих мушкетёров - Атоса, Портоса и Арамиса - и получил от всех троих вызовы на дуэль. Но дуэль была прервана появлением гвардейцев кардинала, которые хотели арестовать их за нарушение указа о запрете дуэлей. Д’Артаньян и три мушкетера победили превосходящего противника и стали друзьями. Теперь они должны остановить злобного Кардинала Ришелье и столкнутся с герцогом Бэкингемом, и предательницей Миледи Де Винтер.



Страна: США, Германия, Франция, Великобритания
Студия: Constantin Film Produktion, Impact Pictures, Nouvelles Éditions de Films
Продолжительность: 01:50:17
Перевод: Дубляж (Blu-ray RUS)

Файл
Кодек: H.265/HEVC
Качество: BDRip 1080p HEVC
Видео: 1920x2160 px, ~10,2 Mb/s (avg), 23,976 fps
Звук: Русский DTS, 1509 kbps, 5.1 ch, 16 bits (DTS-HD MA Core без MLP данных)
3D: Левый ракурс сверху

АНОНСЫ ПОПУЛЯРНЫХ РАЗДАЧ


Торрент обновлён, улучшен видеоряд и звук!

General
Unique ID : 171962334265518824124401236898270590654 (0x815EBDAAC3085C7F898279825DA2B6BE)
Complete name : The Three Musketeers (2011) 1080p HEVC 3D-ab.mkv
Format : Matroska
Format version : Version 3 / Version 2
File size : 9.21 GiB
Duration : 1 h 50 min
Overall bit rate : 12.0 Mb/s
Movie name : The Three Musketeers (2011) 3D Full-T&B (x265)
Encoded date : UTC 2017-02-09 04:50:03
Writing application : mkvmerge v9.8.0 ('Kuglblids') 64bit
Writing library : libebml v1.3.4 + libmatroska v1.4.5

Video
ID : 1
Format : HEVC
Format/Info : High Efficiency Video Coding
Format profile : Main 10@L5@High
MultiView_Count : 2
MultiView_Layout : Top-Bottom (left eye first)
Codec ID : V_MPEGH/ISO/HEVC
Duration : 1 h 50 min
Bit rate : 10.2 Mb/s
Width : 1 920 pixels
Height : 2 160 pixels
Display aspect ratio : 0.889
Original display aspect ratio : 16:9
Frame rate mode : Constant
Frame rate : 23.976 (24000/1001) FPS
Color space : YUV
Chroma subsampling : 4:2:0
Bit depth : 10 bits
Bits/(Pixel*Frame) : 0.103
Stream size : 7.87 GiB (85%)
Title : 3D Full-T&B (x265)
Writing library : x265 2.2+30-fa52b516f5ff:[Windows][GCC 6.2.0][64 bit] 10bit
Encoding settings : cpuid=1050111 / frame-threads=3 / numa-pools=8 / wpp / no-pmode / no-pme / no-psnr / no-ssim / log-level=2 / input-csp=1 / input-res=1920x2160 / interlace=0 / total-frames=158664 / level-idc=50 / high-tier=1 / uhd-bd=0 / ref=1 / no-allow-non-conformance / no-repeat-headers / annexb / no-aud / no-hrd / info / hash=0 / no-temporal-layers / open-gop / min-keyint=23 / keyint=250 / bframes=4 / b-adapt=2 / b-pyramid / bframe-bias=0 / rc-lookahead=40 / lookahead-slices=2 / scenecut=40 / no-intra-refresh / ctu=32 / min-cu-size=8 / no-rect / no-amp / max-tu-size=16 / tu-inter-depth=1 / tu-intra-depth=1 / limit-tu=0 / rdoq-level=2 / complex-analysis=0.00 / signhide / no-tskip / nr-intra=0 / nr-inter=0 / no-constrained-intra / no-strong-intra-smoothing / max-merge=2 / limit-refs=0 / no-limit-modes / me=3 / subme=7 / merange=25 / temporal-mvp / weightp / weightb / no-analyze-src-pics / no-deblock / no-sao / no-sao-non-deblock / rd=3 / early-skip / no-rskip / fast-intra / no-tskip-fast / no-cu-lossless / no-b-intra / rdpenalty=0 / psy-rd=2.50 / psy-rdoq=5.00 / no-rd-refine / analysis-mode=0 / no-lossless / cbqpoffs=0 / crqpoffs=0 / rc=crf / crf=24.0 / qcomp=0.80 / qpstep=1 / stats-write=0 / stats-read=0 / vbv-maxrate=100000 / vbv-bufsize=100000 / vbv-init=0.9 / crf-max=0.0 / crf-min=0.0 / ipratio=1.10 / pbratio=1.10 / aq-mode=3 / aq-strength=0.60 / no-cutree / zone-count=0 / no-strict-cbr / qg-size=16 / no-rc-grain / qpmax=51 / qpmin=0 / sar=16 / overscan=0 / videoformat=5 / range=0 / colorprim=1 / transfer=2 / colormatrix=2 / chromaloc=0 / display-window=0 / max-cll=0,0 / min-luma=0 / max-luma=1023 / log2-max-poc-lsb=8 / vui-timing-info / vui-hrd-info / slices=1 / opt-qp-pps / opt-ref-list-length-pps / no-multi-pass-opt-rps / scenecut-bias=0.05 / no-opt-cu-delta-qp / no-aq-motion
Default : Yes
Forced : No
Color range : Limited
Color primaries : BT.709

Audio
ID : 2
Format : DTS
Format/Info : Digital Theater Systems
Mode : 16
Format settings, Endianness : Big
Codec ID : A_DTS
Duration : 1 h 50 min
Bit rate mode : Constant
Bit rate : 1 509 kb/s
Channel(s) : 6 channels
Channel positions : Front: L C R, Side: L R, LFE
Sampling rate : 48.0 kHz
Frame rate : 93.750 FPS (512 spf)
Bit depth : 16 bits
Compression mode : Lossy
Stream size : 1.16 GiB (13%)
Title : Russian (DTS-HD MA Core 5.1 48KHz)
Language : Russian
Default : Yes
Forced : No

Menu
00:00:00.000 : :1 - 0:00:00
00:03:39.010 : :2 - 0:03:39
00:07:01.629 : :3 - 0:07:02
00:12:17.528 : :4 - 0:12:18
00:18:17.554 : :5 - 0:18:18
00:23:49.302 : :6 - 0:23:49
00:31:24.799 : :7 - 0:31:25
00:37:34.210 : :8 - 0:37:34
00:46:15.439 : :9 - 0:46:15
00:52:17.175 : :10 - 0:52:17
00:59:11.256 : :11 - 0:59:11
01:03:07.575 : :12 - 1:03:08
01:11:54.893 : :13 - 1:11:55
01:17:00.699 : :14 - 1:17:01
01:22:38.036 : :15 - 1:22:38
01:29:28.738 : :16 - 1:29:29
01:36:06.802 : :17 - 1:36:07
01:42:24.805 : :18 - 1:42:25
01:50:17.527 : :19 - 1:50:18





Скачать Мушкетеры.The.Musketeers.(Пол.У.С.Андерсон).[2011.драма.BDRip-HEVC].[1080].[Dub].[3D-Video.(OU)].torrent без регистрации
Золото ЗОЛОТАЯ РАЗДАЧА! СКАЧАННОЕ НЕ ЗАСЧИТЫВАЕТСЯ! Золото
Дата: Зарегистрирован   [ Тип: внешний ] Как тут cкачать?
MAGNET ссылка
MAGNET ссылка


Скачать .torrent

47 KB

Статус: проверено DHT
Скачан: торрент - 156 раз, раздача полностью - 2 раз
Размер: 9,21 GB
Оценка:  - (Голосов: 0)
Поблагодарили: 1
Поделиться ссылкой на эту раздачу с друзьями:
В контактеFacebookОдноклассникиTwitterLivejournalМой МирLiveinternet
 

 
Показать сообщения:    


Вы не можете начинать темы
Вы не можете отвечать на сообщения
Вы не можете редактировать свои сообщения
Вы не можете удалять свои сообщения
Вы не можете голосовать в опросах
Вы не можете прикреплять файлы к сообщениям
Вы можете скачивать файлы