Loading...
Error

Скачать Прослушка / The Wire (сезоны 01-05) (Джо Чаппелль, Клемент Вирго, Роб Бэйли) [2002-2008, триллер, драма, криминал, детектив, WEB-DL] [720p] [VO (FoxCrime)]+[Eng]+[Sub Eng] торрент без регистрации

 
Статистика раздачи
Размер:  113,84 GB   |    Скачан:  219 раз
Сидов:  1  [  0 KB/s  ]  
 
Автор Сообщение

МихаНЕзатор

[] 

Информация о фильме
Название: Прослушка
Оригинальное название: The Wire
Год выхода: 2002–2008
Жанр: триллер, драма, криминал, детектив
Режиссер: Джо Чаппелль, Клемент Вирго, Роб Бэйли

В ролях: Доминик Уэст, Идрис Эльба, Вуд Харрис, Лэнс Реддик, Соня Сон, Дирдри Лавджой, Джон Доумен, Уенделл Пирс, Сет Гиллиам, Доменик Ломбардоззи

О фильме: Подразделение полицейских в Балтиморе пытается с помощью специальных средств и мероприятий по прослушиванию и скрытой видеосъемке довести до суда расследование преступлений организованных преступных групп, которые занимаются незаконным распространением наркотиков.



Страна: США
Студия: HBO
Продолжительность: ~58 минут/серия
Перевод: Профессиональный (многоголосый закадровый) FoxCrime

Файл
Кодек: AVC
Качество: WEB-DL 720p
Видео: 1280x718 at 23.976 fps, MPEG-4 AVC, ~4000 Kbps
Звук:
MP3, 2 channels, 128 Kbps, RUS
AC3, 6 channels, 384 Kbps, ENG
Субтитры: English

По версии IMDB - лучший сериал всех времён и народов.

Скриншоты

MI

General

Unique ID : 35613576938971970153093746796347996894 (0x1ACAECE8ACFF36EE178CE5013F2B3ADE)
Complete name : /mnt/data/TV Shows/The Wire/The Wire S01/The.Wire.S01E01.mkv
Format : Matroska
Format version : Version 4 / Version 2
File size : 2.04 GiB
Duration : 1h 2mn
Overall bit rate : 4 704 Kbps
Movie name : The Wire S01E01 (2002) - The Target
Encoded date : UTC 2015-01-11 15:15:22
Writing application : mkvmerge v7.5.0 ('Glass Culture') 64bit built on Jan 4 2015 18:51:27
Writing library : libebml v1.3.1 + libmatroska v1.4.2
DURATION : 00:59:51.954000000
NUMBER_OF_FRAMES : 881
NUMBER_OF_BYTES : 34383
_STATISTICS_WRITING_APP : mkvmerge v7.5.0 ('Glass Culture') 64bit built on Jan 4 2015 18:51:27
_STATISTICS_WRITING_DATE_UTC : 2015-01-11 15:15:22
_STATISTICS_TAGS : BPS DURATION NUMBER_OF_FRAMES NUMBER_OF_BYTES

Video

ID : 1
Format : AVC
Format/Info : Advanced Video Codec
Format profile : High@L3.1
Format settings, CABAC : No
Format settings, ReFrames : 2 frames
Format settings, GOP : N=1
Codec ID : V_MPEG4/ISO/AVC
Duration : 1h 2mn
Bit rate : 4 035 Kbps
Width : 1 280 pixels
Height : 718 pixels
Display aspect ratio : 16:9
Frame rate mode : Constant
Frame rate : 23.976 fps
Color space : YUV
Chroma subsampling : 4:2:0
Bit depth : 8 bits
Scan type : Progressive
Bits/(Pixel*Frame) : 0.183
Stream size : 1.75 GiB (86%)
Title : The Wire S01E01 - The Target
Language : English
Default : Yes
Forced : No
Color primaries : BT.709
Transfer characteristics : BT.709
Matrix coefficients : BT.709

Audio #1

ID : 2
Format : AC-3
Format/Info : Audio Coding 3
Mode extension : CM (complete main)
Format settings, Endianness : Big
Codec ID : A_AC3
Duration : 1h 2mn
Bit rate mode : Constant
Bit rate : 192 Kbps
Channel(s) : 2 channels
Channel positions : Front: L R
Sampling rate : 48.0 KHz
Bit depth : 16 bits
Compression mode : Lossy
Stream size : 85.3 MiB (4%)
Title : Fox Crime
Language : Russian
Default : Yes
Forced : No

Audio #2

ID : 3
Format : AC-3
Format/Info : Audio Coding 3
Mode extension : CM (complete main)
Format settings, Endianness : Big
Codec ID : A_AC3
Duration : 1h 2mn
Bit rate mode : Constant
Bit rate : 384 Kbps
Channel(s) : 6 channels
Channel positions : Front: L C R, Side: L R, LFE
Sampling rate : 48.0 KHz
Bit depth : 16 bits
Compression mode : Lossy
Stream size : 171 MiB (8%)
Title : Original
Language : English
Default : No
Forced : No

Text

ID : 4
Format : UTF-8
Codec ID : S_TEXT/UTF8
Codec ID/Info : UTF-8 Plain Text
Language : English
Default : No
Forced : No

Скриншоты

MI

General

Unique ID : 49762185429977732481253067936926294627 (0x256FD92A4E1A5460FF8C965931EC6263)
Complete name : /mnt/data/TV Shows/The Wire/The Wire S02/The.Wire.S02E01.mkv
Format : Matroska
Format version : Version 4 / Version 2
File size : 1.88 GiB
Duration : 58mn 35s
Overall bit rate : 4 582 Kbps
Movie name : The Wire S02E01 (2003) - Ebb Tide
Encoded date : UTC 2015-01-11 15:58:13
Writing application : mkvmerge v7.5.0 ('Glass Culture') 64bit built on Jan 4 2015 18:51:27
Writing library : libebml v1.3.1 + libmatroska v1.4.2
DURATION : 00:56:37.221000000
NUMBER_OF_FRAMES : 646
NUMBER_OF_BYTES : 27655
_STATISTICS_WRITING_APP : mkvmerge v7.5.0 ('Glass Culture') 64bit built on Jan 4 2015 18:51:27
_STATISTICS_WRITING_DATE_UTC : 2015-01-11 15:58:13
_STATISTICS_TAGS : BPS DURATION NUMBER_OF_FRAMES NUMBER_OF_BYTES

Video

ID : 1
Format : AVC
Format/Info : Advanced Video Codec
Format profile : High@L3.1
Format settings, CABAC : No
Format settings, ReFrames : 2 frames
Format settings, GOP : N=1
Codec ID : V_MPEG4/ISO/AVC
Duration : 58mn 35s
Bit rate : 3 915 Kbps
Width : 1 280 pixels
Height : 718 pixels
Display aspect ratio : 16:9
Frame rate mode : Constant
Frame rate : 23.976 fps
Color space : YUV
Chroma subsampling : 4:2:0
Bit depth : 8 bits
Scan type : Progressive
Bits/(Pixel*Frame) : 0.178
Stream size : 1.60 GiB (85%)
Title : The Wire S02E01 - Ebb Tide
Language : English
Default : Yes
Forced : No
Color primaries : BT.709
Transfer characteristics : BT.709
Matrix coefficients : BT.709

Audio #1

ID : 2
Format : AC-3
Format/Info : Audio Coding 3
Mode extension : CM (complete main)
Format settings, Endianness : Big
Codec ID : A_AC3
Duration : 58mn 35s
Bit rate mode : Constant
Bit rate : 192 Kbps
Channel(s) : 2 channels
Channel positions : Front: L R
Sampling rate : 48.0 KHz
Bit depth : 16 bits
Compression mode : Lossy
Stream size : 80.5 MiB (4%)
Title : Fox Crime
Language : Russian
Default : Yes
Forced : No

Audio #2

ID : 3
Format : AC-3
Format/Info : Audio Coding 3
Mode extension : CM (complete main)
Format settings, Endianness : Big
Codec ID : A_AC3
Duration : 58mn 35s
Bit rate mode : Constant
Bit rate : 384 Kbps
Channel(s) : 6 channels
Channel positions : Front: L C R, Side: L R, LFE
Sampling rate : 48.0 KHz
Bit depth : 16 bits
Compression mode : Lossy
Stream size : 161 MiB (8%)
Title : Original
Language : English
Default : No
Forced : No

Text

ID : 4
Format : UTF-8
Codec ID : S_TEXT/UTF8
Codec ID/Info : UTF-8 Plain Text
Language : English
Default : No
Forced : No

Скриншоты

MI

General

Unique ID : 305187561326095433197042736162321426374 (0xE598FC7E3D0451C6F67812AFF9CF67C6)
Complete name : /mnt/data/TV Shows/The Wire/The Wire S03/The.Wire.S03E01.mkv
Format : Matroska
Format version : Version 4 / Version 2
File size : 1.84 GiB
Duration : 58mn 36s
Overall bit rate : 4 483 Kbps
Movie name : The Wire S03E01 (2004) - Time After Time
Encoded date : UTC 2015-01-11 16:46:22
Writing application : mkvmerge v7.5.0 ('Glass Culture') 64bit built on Jan 4 2015 18:51:27
Writing library : libebml v1.3.1 + libmatroska v1.4.2
DURATION : 00:58:36.456000000
NUMBER_OF_FRAMES : 146519
NUMBER_OF_BYTES : 56263296
_STATISTICS_WRITING_APP : mkvmerge v7.5.0 ('Glass Culture') 64bit built on Jan 4 2015 18:51:27
_STATISTICS_WRITING_DATE_UTC : 2015-01-11 16:46:22
_STATISTICS_TAGS : BPS DURATION NUMBER_OF_FRAMES NUMBER_OF_BYTES

Video

ID : 1
Format : AVC
Format/Info : Advanced Video Codec
Format profile : High@L3.1
Format settings, CABAC : No
Format settings, ReFrames : 2 frames
Format settings, GOP : N=1
Codec ID : V_MPEG4/ISO/AVC
Duration : 58mn 36s
Bit rate : 3 882 Kbps
Width : 1 280 pixels
Height : 718 pixels
Display aspect ratio : 16:9
Frame rate mode : Constant
Frame rate : 23.976 fps
Color space : YUV
Chroma subsampling : 4:2:0
Bit depth : 8 bits
Scan type : Progressive
Bits/(Pixel*Frame) : 0.176
Stream size : 1.59 GiB (87%)
Title : The Wire S03E01 - Time After Time
Language : English
Default : Yes
Forced : No
Color primaries : BT.709
Transfer characteristics : BT.709
Matrix coefficients : BT.709

Audio #1

ID : 2
Format : MPEG Audio
Format version : Version 1
Format profile : Layer 3
Mode : Joint stereo
Mode extension : MS Stereo
Codec ID : A_MPEG/L3
Codec ID/Hint : MP3
Duration : 58mn 36s
Bit rate mode : Constant
Bit rate : 128 Kbps
Channel(s) : 2 channels
Sampling rate : 48.0 KHz
Compression mode : Lossy
Delay relative to video : 4ms
Stream size : 53.7 MiB (3%)
Title : Fox Crime
Language : Russian
Default : Yes
Forced : No

Audio #2

ID : 3
Format : AC-3
Format/Info : Audio Coding 3
Mode extension : CM (complete main)
Format settings, Endianness : Big
Codec ID : A_AC3
Duration : 58mn 36s
Bit rate mode : Constant
Bit rate : 384 Kbps
Channel(s) : 6 channels
Channel positions : Front: L C R, Side: L R, LFE
Sampling rate : 48.0 KHz
Bit depth : 16 bits
Compression mode : Lossy
Stream size : 161 MiB (9%)
Title : Original
Language : English
Default : No
Forced : No

Text

ID : 4
Format : UTF-8
Codec ID : S_TEXT/UTF8
Codec ID/Info : UTF-8 Plain Text
Language : English
Default : No
Forced : No

Скриншоты

MI

General

Unique ID : 308296650018497656023805362478209765876 (0xE7EFC666902B482E93C0834B121B11F4)
Complete name : /mnt/data/TV Shows/The Wire/The Wire S04/The.Wire.S04E01.mkv
Format : Matroska
Format version : Version 4 / Version 2
File size : 1.82 GiB
Duration : 58mn 27s
Overall bit rate : 4 468 Kbps
Movie name : The Wire S04E01 (2006) - Boys of Summer
Encoded date : UTC 2015-01-11 17:49:48
Writing application : mkvmerge v7.5.0 ('Glass Culture') 64bit built on Jan 4 2015 18:51:27
Writing library : libebml v1.3.1 + libmatroska v1.4.2
DURATION : 00:58:27.120000000
NUMBER_OF_FRAMES : 146130
NUMBER_OF_BYTES : 56113920
_STATISTICS_WRITING_APP : mkvmerge v7.5.0 ('Glass Culture') 64bit built on Jan 4 2015 18:51:27
_STATISTICS_WRITING_DATE_UTC : 2015-01-11 17:49:48
_STATISTICS_TAGS : BPS DURATION NUMBER_OF_FRAMES NUMBER_OF_BYTES

Video

ID : 1
Format : AVC
Format/Info : Advanced Video Codec
Format profile : High@L3.1
Format settings, CABAC : No
Format settings, ReFrames : 2 frames
Format settings, GOP : N=1
Codec ID : V_MPEG4/ISO/AVC
Duration : 58mn 27s
Bit rate : 3 867 Kbps
Width : 1 280 pixels
Height : 718 pixels
Display aspect ratio : 16:9
Frame rate mode : Constant
Frame rate : 23.976 fps
Color space : YUV
Chroma subsampling : 4:2:0
Bit depth : 8 bits
Scan type : Progressive
Bits/(Pixel*Frame) : 0.176
Stream size : 1.58 GiB (87%)
Title : The Wire S04E01 - Boys of Summer
Language : English
Default : Yes
Forced : No
Color primaries : BT.709
Transfer characteristics : BT.709
Matrix coefficients : BT.709

Audio #1

ID : 2
Format : MPEG Audio
Format version : Version 1
Format profile : Layer 3
Mode : Joint stereo
Mode extension : MS Stereo
Codec ID : A_MPEG/L3
Codec ID/Hint : MP3
Duration : 58mn 27s
Bit rate mode : Constant
Bit rate : 128 Kbps
Channel(s) : 2 channels
Sampling rate : 48.0 KHz
Compression mode : Lossy
Delay relative to video : 4ms
Stream size : 53.5 MiB (3%)
Title : Fox Crime
Language : Russian
Default : Yes
Forced : No

Audio #2

ID : 3
Format : AC-3
Format/Info : Audio Coding 3
Mode extension : CM (complete main)
Format settings, Endianness : Big
Codec ID : A_AC3
Duration : 58mn 27s
Bit rate mode : Constant
Bit rate : 384 Kbps
Channel(s) : 6 channels
Channel positions : Front: L C R, Side: L R, LFE
Sampling rate : 48.0 KHz
Bit depth : 16 bits
Compression mode : Lossy
Stream size : 161 MiB (9%)
Title : Original
Language : English
Default : No
Forced : No

Text

ID : 4
Format : UTF-8
Codec ID : S_TEXT/UTF8
Codec ID/Info : UTF-8 Plain Text
Language : English
Default : No
Forced : No

Скриншоты


MI

General

Unique ID : 95963754756392698677555679458088681089 (0x4831F26720E96F81780FDB5AB80F7E81)
Complete name : /mnt/data/TV Shows/The Wire/The Wire S05/The.Wire.S05E01.mkv
Format : Matroska
Format version : Version 4 / Version 2
File size : 1.84 GiB
Duration : 58mn 40s
Overall bit rate : 4 502 Kbps
Movie name : The Wire S05E01 (2008) - More with Less
Encoded date : UTC 2015-01-11 18:49:50
Writing application : mkvmerge v7.5.0 ('Glass Culture') 64bit built on Jan 4 2015 18:51:27
Writing library : libebml v1.3.1 + libmatroska v1.4.2
DURATION : 00:58:40.440000000
NUMBER_OF_FRAMES : 146685
NUMBER_OF_BYTES : 56327040
_STATISTICS_WRITING_APP : mkvmerge v7.5.0 ('Glass Culture') 64bit built on Jan 4 2015 18:51:27
_STATISTICS_WRITING_DATE_UTC : 2015-01-11 18:49:50
_STATISTICS_TAGS : BPS DURATION NUMBER_OF_FRAMES NUMBER_OF_BYTES

Video

ID : 1
Format : AVC
Format/Info : Advanced Video Codec
Format profile : High@L3.1
Format settings, CABAC : No
Format settings, ReFrames : 2 frames
Format settings, GOP : N=1
Codec ID : V_MPEG4/ISO/AVC
Duration : 58mn 40s
Bit rate : 3 900 Kbps
Width : 1 280 pixels
Height : 718 pixels
Display aspect ratio : 16:9
Frame rate mode : Constant
Frame rate : 23.976 fps
Color space : YUV
Chroma subsampling : 4:2:0
Bit depth : 8 bits
Scan type : Progressive
Bits/(Pixel*Frame) : 0.177
Stream size : 1.60 GiB (87%)
Title : The Wire S05E01 - More with Less
Language : English
Default : Yes
Forced : No
Color primaries : BT.709
Transfer characteristics : BT.709
Matrix coefficients : BT.709

Audio #1

ID : 2
Format : MPEG Audio
Format version : Version 1
Format profile : Layer 3
Mode : Joint stereo
Mode extension : MS Stereo
Codec ID : A_MPEG/L3
Codec ID/Hint : MP3
Duration : 58mn 40s
Bit rate mode : Constant
Bit rate : 128 Kbps
Channel(s) : 2 channels
Sampling rate : 48.0 KHz
Compression mode : Lossy
Delay relative to video : 4ms
Stream size : 53.7 MiB (3%)
Title : Fox Crime
Language : Russian
Default : Yes
Forced : No

Audio #2

ID : 3
Format : AC-3
Format/Info : Audio Coding 3
Mode extension : CM (complete main)
Format settings, Endianness : Big
Codec ID : A_AC3
Duration : 58mn 40s
Bit rate mode : Constant
Bit rate : 384 Kbps
Channel(s) : 6 channels
Channel positions : Front: L C R, Side: L R, LFE
Sampling rate : 48.0 KHz
Bit depth : 16 bits
Compression mode : Lossy
Stream size : 161 MiB (9%)
Title : Original
Language : English
Default : No
Forced : No

Text

ID : 4
Format : UTF-8
Codec ID : S_TEXT/UTF8
Codec ID/Info : UTF-8 Plain Text
Language : English
Default : No
Forced : No



Скачать Прослушка.The.Wire.(сезоны.01-05).(Джо.Чаппелль.Клемент.Вирго.Роб.Бэйли).[2002-2008.триллер.драма.криминал.детектив.WEB-DL].[720p].[VO.(FoxCrime)]+[Eng]+[Sub.Eng].torrent без регистрации
Золото ЗОЛОТАЯ РАЗДАЧА! СКАЧАННОЕ НЕ ЗАСЧИТЫВАЕТСЯ! Золото
Дата: Зарегистрирован   [ Тип: внутренний ] Как тут cкачать?
MAGNET ссылка
MAGNET ссылка


Скачать .torrent

1 MB

Статус: проверено DHT
Скачан: торрент - 219 раз, раздача полностью - 19 раз
Размер: 113,84 GB
Оценка:  4 (Голосов: 1)
Поблагодарили: 2
Поделиться ссылкой на эту раздачу с друзьями:
В контактеFacebookОдноклассникиTwitterLivejournalМой МирLiveinternet
 

 
Показать сообщения:    


Вы не можете начинать темы
Вы не можете отвечать на сообщения
Вы не можете редактировать свои сообщения
Вы не можете удалять свои сообщения
Вы не можете голосовать в опросах
Вы не можете прикреплять файлы к сообщениям
Вы можете скачивать файлы