Loading...
Error

Скачать Девочка в матроске и автомат / Sêrâ-fuku to kikanjû (Шинжи Сомаи) [1981, боевик, DVDRip] [VO] торрент без регистрации

 
Статистика раздачи
Размер:  1,43 GB   |    Скачан:  103 раза
Сидов:  1  [  0 KB/s  ]  
 
Автор Сообщение

Marsianka

[] 



Страна: Япония
Производство: Kadokawa Haruki Jimusho, Kitty Films
Жанр: боевик
Год выпуска: 1981
Продолжительность: 01:51:44
Перевод: Любительский одноголосый (Виктор Береговых (Jet))
Режиссер: Шинжи Сомаи
В ролях: Хироко Якусимару, Цунэхико Ватасэ, Рэнтаро Микуни, Юки Казаматсури, Кадзуо Китамура, Акира Эмото, Масааки Даймон, Макото Сайто, Минори Терада, Каматари Фудзивара

Описание: Идзуми Хоси, наивная и стеснительная старшеклассница, теряет отца в автокатастрофе. Девушка еще больше замыкается в себе, но тут к ней в гости является делегация местных «братков» во главе с мужественным красавцем Сакумой, младшим боссом семьи Медака. Увы, старший босс отошел в мир иной, а последним его прямым родичем был отец Идзуми. Теперь только хрупкая девушка может спасти небольшой, но гордый клан, который теснят наглые конкуренты, позабывшие законы чести якудза. Узнав, что смерть отца не была случайной, Идзуми откладывает учебники и провозглашает себя восьмым кумитё семьи Медака. Фамильные гены и отцовский характер, поддержка верного Сакумы и преданность новых «младших братьев» быстро помогают новой главе клана разобраться в незнакомом мире.



Исходник: DVD5 R1
Тип релиза: DVDRip
Контейнер: AVI
Видео: 704x384 (1.83:1), 23.976 fps, XviD build 50 ~1625 kbps avg, 0.25 bit/pixel
Аудио 1: 48 kHz, AC3 Dolby Digital, 2/0 (L,R) ch, ~192 kbps (русский)
Общее
Полное имя : E:1АААДевочка в матроске и автомат.avi
Формат : AVI
Формат/Информация : Audio Video Interleave
Размер файла : 1,43 Гбайт
Продолжительность : 1 ч. 51 м.
Общий поток : 1827 Кбит/сек
Программа кодирования : VirtualDubMod 1.5.10.3 | www.virtualdub-fr.org || (build 2550/release)
Библиотека кодирования : VirtualDubMod build 2550/release

Видео
Идентификатор : 0
Формат : MPEG-4 Visual
Профиль формата : Advanced Simple@L5
Параметр BVOP формата : 1
Параметр QPel формата : Нет
Параметр GMC формата : Без точки перехода
Параметр матрицы формата : Default (H.263)
Идентификатор кодека : XVID
Идентификатор кодека/Подсказка : XviD
Продолжительность : 1 ч. 51 м.
Битрейт : 1626 Кбит/сек
Ширина : 704 пикселя
Высота : 384 пикселя
Соотношение сторон : 1,85:1
Частота кадров : 23,976 кадра/сек
Цветовое пространство : YUV
Субдискретизация насыщенности : 4:2:0
Битовая глубина : 8 бит
Тип развёртки : Прогрессивная
Метод сжатия : С потерями
Бит/(Пиксели*Кадры) : 0.251
Размер потока : 1,27 Гбайт (89%)
Библиотека кодирования : XviD 1.2.1 (UTC 2008-12-04)

Аудио
Идентификатор : 1
Формат : AC-3
Формат/Информация : Audio Coding 3
Расширение режима : CM (complete main)
Параметр Endianness формата : Big
Идентификатор кодека : 2000
Продолжительность : 1 ч. 51 м.
Вид битрейта : Постоянный
Битрейт : 192 Кбит/сек
Каналы : 2 канала
Расположение каналов : Front: L R
Частота : 48,0 КГц
Битовая глубина : 16 бит
Метод сжатия : С потерями
Размер потока : 153 Мбайт (11%)
Выравнивание : Разделение по промежуткам
Продолжительность промежутка : 42 мс. (1,00 видеокадр)
Время предзагрузки промежутка : 500 мс.
Релиз группа:
Автор рипа:



Скачать Девочка.в.матроске.и.автомат.Sêrâ-fuku.to.kikanjû.(Шинжи.Сомаи).[1981.боевик.DVDRip].[VO].torrent без регистрации
Золото ЗОЛОТАЯ РАЗДАЧА! СКАЧАННОЕ НЕ ЗАСЧИТЫВАЕТСЯ! Золото
Дата: Зарегистрирован   [ Тип: внутренний ] Как тут cкачать?
MAGNET ссылка
MAGNET ссылка


Скачать .torrent

15 KB

Статус: проверено DHT
Скачан: торрент - 103 раз, раздача полностью - 3 раз
Размер: 1,43 GB
Оценка:  - (Голосов: 0)
Поблагодарили: 0
Поделиться ссылкой на эту раздачу с друзьями:
В контактеFacebookОдноклассникиTwitterLivejournalМой МирLiveinternet
 

 
Показать сообщения:    


Вы не можете начинать темы
Вы не можете отвечать на сообщения
Вы не можете редактировать свои сообщения
Вы не можете удалять свои сообщения
Вы не можете голосовать в опросах
Вы не можете прикреплять файлы к сообщениям
Вы можете скачивать файлы