Loading...
Error

Скачать Опаленные жгучей страстью / Bruciati da cocente passione (Джорджио Капитани) [1976, комедия, DVDRip] [VO] торрент без регистрации

 
Статистика раздачи
Размер:  1,34 GB   |    Скачан:  103 раза
Сидов:  1  [  0 KB/s  ]  
 
Автор Сообщение

Marsianka

[] 

Информация о фильме
Название: Опаленные жгучей страстью
Оригинальное название: Bruciati da cocente passione
Год выхода: 1976
Жанр: комедия
Режиссер: Джорджио Капитани / Giorgio Capitani
В ролях: Джейн Биркин, Катрин Спаак, Коки Понцони, Альдо Маччоне, Марио Марандзана, Даниэле Формика, Тициана Сентанни, Кристиана Де Лео, Маурицио Россетти, Массимилиано Монти

О фильме:
Казимиро и Вирджиния живут в небольшом итальянском поселке, которого нет на карте и ежедневно вместе ездят на работу в Милан. Постепенно между молодыми людьми возникает влюбленность, но, увы, оба они женаты и имеют по двое детишек. Влюбленные пытаются противостоять своим чувствам, да и обстоятельства не способствуют развитию их отношений...



Страна: Италия
Продолжительность: 01:44:22
Перевод: Любительский одноголосый закадровый Urasiko

Файл
Кодек: DivX
Качество: DVDRip
Видео: DivX, 720x400 (1.8:1), 25 fps, 1631 kbps avg
Звук: AC-3, 48 KHz, 192 Kbps, 2 channels
General
Complete name : E:CDBruciati da cocente passione (1976) Ru.avi
Format : AVI
Format/Info : Audio Video Interleave
File size : 1.34 GiB
Duration : 1h 44mn
Overall bit rate : 1 833 Kbps
Writing application : VirtualDubMod 1.5.4.1 (build 2178/release)
Writing library : VirtualDubMod build 2178/release

Video
ID : 0
Format : MPEG-4 Visual
Format profile : Advanced Simple@L5
Format settings, BVOP : 1
Format settings, QPel : No
Format settings, GMC : No warppoints
Format settings, Matrix : Custom
Codec ID : XVID
Codec ID/Hint : XviD
Duration : 1h 44mn
Bit rate : 1 632 Kbps
Width : 720 pixels
Height : 400 pixels
Display aspect ratio : 16:9
Frame rate : 25.000 fps
Color space : YUV
Chroma subsampling : 4:2:0
Bit depth : 8 bits
Scan type : Progressive
Compression mode : Lossy
Bits/(Pixel*Frame) : 0.227
Stream size : 1.19 GiB (89%)
Writing library : XviD 64

Audio
ID : 1
Format : AC-3
Format/Info : Audio Coding 3
Mode extension : CM (complete main)
Format settings, Endianness : Big
Codec ID : 2000
Duration : 1h 44mn
Bit rate mode : Constant
Bit rate : 192 Kbps
Channel(s) : 2 channels
Channel positions : Front: L R
Sampling rate : 48.0 KHz
Bit depth : 16 bits
Compression mode : Lossy
Stream size : 143 MiB (10%)
Alignment : Split accross interleaves
Interleave, duration : 40 ms (1.00 video frame)
Interleave, preload duration : 500 ms
Релиз от:



Скачать Опаленные.жгучей.страстью.Bruciati.da.cocente.passione.(Джорджио.Капитани).[1976.комедия.DVDRip].[VO].torrent без регистрации
Золото ЗОЛОТАЯ РАЗДАЧА! СКАЧАННОЕ НЕ ЗАСЧИТЫВАЕТСЯ! Золото
Дата: Зарегистрирован   [ Тип: внутренний ] Как тут cкачать?
MAGNET ссылка
MAGNET ссылка


Скачать .torrent

14 KB

Статус: проверено DHT
Скачан: торрент - 103 раз, раздача полностью - 5 раз
Размер: 1,34 GB
Оценка:  5 (Голосов: 1)
Поблагодарили: 1
Поделиться ссылкой на эту раздачу с друзьями:
В контактеFacebookОдноклассникиTwitterLivejournalМой МирLiveinternet
 

 
Показать сообщения:    


Вы не можете начинать темы
Вы не можете отвечать на сообщения
Вы не можете редактировать свои сообщения
Вы не можете удалять свои сообщения
Вы не можете голосовать в опросах
Вы не можете прикреплять файлы к сообщениям
Вы можете скачивать файлы