Loading...
Error

Скачать Душа / Jaan (Радж Канвар) [1996, мелодрама, боевик, DVDRip] [MVO] торрент без регистрации

 
Статистика раздачи
Размер:  1,46 GB   |    Скачан:  99 раз
Сидов:  1  [  0 KB/s  ]  
 
Автор Сообщение

Marsianka

[] 

Информация о фильме
Название: Душа
Оригинальное название: Jaan
Год выхода: 1996
Жанр: мелодрама, боевик
Режиссер: Радж Канвар / Raj Kanwar
В ролях: Аджай Девган, Твинкл Кханна, Амриш Пури, Ракхи Гульзар, Шакти Капур, Суреш Оберой, Вивек Мушран, Бинду, Аруна Ирани

О фильме:
Душещипательная история любви между телохранителем и его подопечной. Каран (Аджай Девган), призванный охранять Каджал (Твинкл Кханна), на самом деле нанят, для того чтобы убить ее. Но любовь меняет жестокие планы, и оружие наемного убийцы оборачивается против его заказчиков...


Страна: Индия
Продолжительность: 02:43:34
Перевод: Профессиональный (многоголосый закадровый) Zee Tv

Файл
Кодек: XviD
Качество: DVDRip
Видео: XviD build 50, 656x288 (2.28:1), 29.970 fps, 1071 kbps avg
Звук: AC3 Dolby Digital, 48 kHz, 2/0 (L,R) ch, 192 kbps

Семпл
General
Complete name : F:Dusha.1996.XviD.DVDRip.Oktober.avi
Format : AVI
Format/Info : Audio Video Interleave
File size : 1.46 GiB
Duration : 2h 43mn
Overall bit rate : 1 275 Kbps
Writing application : VirtualDubMod 1.5.10.2 (build 2540/release)
Writing library : VirtualDubMod build 2540/release

Video
ID : 0
Format : MPEG-4 Visual
Format profile : AdvancedSimple@L5
Format settings, BVOP : Yes
Format settings, QPel : No
Format settings, GMC : No warppoints
Format settings, Matrix : Default (H.263)
Codec ID : XVID
Codec ID/Hint : XviD
Duration : 2h 43mn
Bit rate : 1 071 Kbps
Width : 656 pixels
Height : 288 pixels
Display aspect ratio : 2.25
Frame rate : 29.970 fps
Resolution : 24 bits
Colorimetry : 4:2:0
Scan type : Progressive
Bits/(Pixel*Frame) : 0.189
Stream size : 1.22 GiB (84%)
Writing library : XviD 1.2.1 (UTC 2008-12-04)

Audio
ID : 1
Format : AC-3
Format/Info : Audio Coding 3
Codec ID : 2000
Duration : 2h 43mn
Bit rate mode : Constant
Bit rate : 192 Kbps
Channel(s) : 2 channels
Channel positions : L R
Sampling rate : 48.0 KHz
Stream size : 225 MiB (15%)
Alignment : Split accross interleaves
Interleave, duration : 33 ms (1.00 video frame)
Interleave, preload duration : 500 ms
Релиз от: Кинозал.ТВ



Скачать Душа.Jaan.(Радж.Канвар).[1996.мелодрама.боевик.DVDRip].[MVO].torrent без регистрации
Золото ЗОЛОТАЯ РАЗДАЧА! СКАЧАННОЕ НЕ ЗАСЧИТЫВАЕТСЯ! Золото
Дата: Зарегистрирован   [ Тип: внутренний ] Как тут cкачать?
MAGNET ссылка
MAGNET ссылка


Скачать .torrent

15 KB

Статус: проверено DHT
Скачан: торрент - 99 раз, раздача полностью - 0 раз
Размер: 1,46 GB
Оценка:  - (Голосов: 0)
Поблагодарили: 0
Поделиться ссылкой на эту раздачу с друзьями:
В контактеFacebookОдноклассникиTwitterLivejournalМой МирLiveinternet
 

 
Показать сообщения:    


Вы не можете начинать темы
Вы не можете отвечать на сообщения
Вы не можете редактировать свои сообщения
Вы не можете удалять свои сообщения
Вы не можете голосовать в опросах
Вы не можете прикреплять файлы к сообщениям
Вы можете скачивать файлы