Loading...
Error

Скачать Персона / Persona (Ингмар Бергман) [1966, драма, BDRip-AVC] [DVO]+[Оригинал] торрент без регистрации

 
Статистика раздачи
Размер:  1,46 GB   |    Скачан:  118 раз
Сидов:  1  [  0 KB/s  ]  
 
Автор Сообщение

Marsianka

[] 

Информация о фильме
Название: Персона
Оригинальное название: Persona
Год выхода: 1966
Жанр: драма
Режиссер: Ингмар Бергман
В ролях: Биби Андерсон, Лив Ульман, Гуннар Бьёрнстранд, Маргарета Кроок

Описание: Элизабет Фоглер, знаменитая актриса, замолкает посредине спектакля и с тех пор перестает разговаривать со всеми. Психиатр выясняет, что Элизабет здорова, но находится в каком-то странном оцепенении. Медсестра Альма должна вывести ее из этого состояния. Женщины остаются вдвоем. Элизабет постоянно молчит, а Альма рассказывает ей истории из своей жизни. Между ними завязывается сложные отношения, балансирующие на грани любви и ненависти.



Страна: Швеция
Студия: Svensk Filmindustri (SF) AB
Продолжительность: 01:24:04
Перевод: Профессиональный (двухголосый закадровый) Видеоимпульс
+ оригинал

Файл
Кодек: x264
Качество: BDRip-AVC
Видео: 888x648 (1.37 :1), 23.976 fps, 2095 Кбит/сек, 0.15 bit/pixel
Аудио 1: 48 kHz, AC3 Dolby Digital, 2/0 (C) ch, ~192 kbps Видеоимпульс
Аудио 2: 48 kHz, AC3 Dolby Digital, 1/0 (C) ch, ~192 kbps оригинал
General
Unique ID : 199249821817189100801139961497110202616 (0x95E61EACDC80192389C487E0B0E048F8)
Complete name : Persona.1966.BDRip-AVC.mkv
Format : Matroska
Format version : Version 2
File size : 1.46 GiB
Duration : 1h 24mn
Overall bit rate mode : Variable
Overall bit rate : 2 484 Kbps
Encoded date : UTC 2014-06-16 06:43:55
Writing application : mkvmerge v5.8.0 ('No Sleep / Pillow') built on Sep 2 2012 15:37:04
Writing library : libebml v1.2.3 + libmatroska v1.3.0

Video
ID : 1
Format : AVC
Format/Info : Advanced Video Codec
Format profile : High@L4.0
Format settings, CABAC : Yes
Format settings, ReFrames : 10 frames
Codec ID : V_MPEG4/ISO/AVC
Duration : 1h 24mn
Bit rate mode : Variable
Bit rate : 2 095 Kbps
Maximum bit rate : 40.0 Mbps
Width : 888 pixels
Height : 648 pixels
Display aspect ratio : 1.370
Frame rate : 23.976 fps
Color space : YUV
Chroma subsampling : 4:2:0
Bit depth : 8 bits
Scan type : Progressive
Bits/(Pixel*Frame) : 0.152
Stream size : 1.20 GiB (83%)
Writing library : x264 core 138 r2358 9e941d1
Encoding settings : cabac=1 / ref=10 / deblock=1:-3:-2 / analyse=0x3:0x133 / me=umh / subme=11 / psy=1 / psy_rd=0.90:0.00 / mixed_ref=1 / me_range=48 / chroma_me=1 / trellis=2 / 8x8dct=1 / cqm=0 / deadzone=21,11 / fast_pskip=0 / chroma_qp_offset=-2 / threads=6 / lookahead_threads=1 / sliced_threads=0 / nr=0 / decimate=0 / interlaced=0 / bluray_compat=0 / constrained_intra=0 / bframes=14 / b_pyramid=2 / b_adapt=2 / b_bias=0 / direct=3 / weightb=1 / open_gop=0 / weightp=2 / keyint=240 / keyint_min=24 / scenecut=40 / intra_refresh=0 / rc_lookahead=60 / rc=2pass / mbtree=0 / bitrate=2095 / ratetol=1.0 / qcomp=0.70 / qpmin=0 / qpmax=69 / qpstep=4 / cplxblur=20.0 / qblur=0.5 / vbv_maxrate=20000 / vbv_bufsize=25000 / nal_hrd=none / ip_ratio=1.40 / pb_ratio=1.30 / aq=2:0.90
Default : Yes
Forced : No

Audio #1
ID : 2
Format : AC-3
Format/Info : Audio Coding 3
Mode extension : CM (complete main)
Codec ID : A_AC3
Duration : 1h 24mn
Bit rate mode : Constant
Bit rate : 192 Kbps
Channel(s) : 2 channels
Channel positions : Front: L R
Sampling rate : 48.0 KHz
Bit depth : 16 bits
Compression mode : Lossy
Stream size : 115 MiB (8%)
Language : Russian
Default : Yes
Forced : No

Audio #2
ID : 3
Format : AC-3
Format/Info : Audio Coding 3
Mode extension : CM (complete main)
Codec ID : A_AC3
Duration : 1h 24mn
Bit rate mode : Constant
Bit rate : 192 Kbps
Channel(s) : 1 channel
Channel positions : Front: C
Sampling rate : 48.0 KHz
Bit depth : 16 bits
Compression mode : Lossy
Stream size : 115 MiB (8%)
Language : Swedish
Default : No
Forced : No

Text #1
ID : 4
Format : UTF-8
Codec ID : S_TEXT/UTF8
Codec ID/Info : UTF-8 Plain Text
Language : Russian
Default : No
Forced : No

Text #2
ID : 5
Format : UTF-8
Codec ID : S_TEXT/UTF8
Codec ID/Info : UTF-8 Plain Text
Language : English
Default : No
Forced : No

Menu
00:00:00.000 : en:Prologue
00:07:16.144 : en:Mrs. Vogler's Situation
00:13:30.184 : en:Nurse Alma
00:19:35.257 : en:"A fantastic part"
00:22:12.622 : en:Seaside stay
00:24:33.847 : en:A good listener
00:28:08.812 : en:Sunbathing
00:35:04.268 : en:"Go to bed"
00:40:40.980 : en:Elisabet's letter
00:43:36.613 : en:Broken glass
00:47:38.855 : en:"Talk to me"
00:54:21.424 : en:Rotten
01:00:18.406 : en:Night terrors
01:06:27.775 : en:Elisabet's little boy
01:15:08.295 : en:"You won't get to me"
01:20:07.719 : en:The end



Скачать Персона.Persona.(Ингмар.Бергман).[1966.драма.BDRip-AVC].[DVO]+[Оригинал].torrent без регистрации
Золото ЗОЛОТАЯ РАЗДАЧА! СКАЧАННОЕ НЕ ЗАСЧИТЫВАЕТСЯ! Золото
Дата: Зарегистрирован   [ Тип: внутренний ] Как тут cкачать?
MAGNET ссылка
MAGNET ссылка


Скачать .torrent

15 KB

Статус: проверено DHT
Скачан: торрент - 118 раз, раздача полностью - 14 раз
Размер: 1,46 GB
Оценка:  - (Голосов: 0)
Поблагодарили: 1
Поделиться ссылкой на эту раздачу с друзьями:
В контактеFacebookОдноклассникиTwitterLivejournalМой МирLiveinternet
 

 
Показать сообщения:    


Вы не можете начинать темы
Вы не можете отвечать на сообщения
Вы не можете редактировать свои сообщения
Вы не можете удалять свои сообщения
Вы не можете голосовать в опросах
Вы не можете прикреплять файлы к сообщениям
Вы можете скачивать файлы