Loading...
Error

Скачать Суперполицейские из Майами / Miami supercops (Бруно Корбуччи) [1985, боевик, комедия, криминал, BDRip-AVC] [AVO (А. Гаврилов)]+[Оригинал]+[Sub]x2 торрент без регистрации

 
Статистика раздачи
Размер:  3,3 GB   |    Скачан:  97 раз
Сидов:  1  [  0 KB/s  ]  
 
Автор Сообщение

Marsianka

[] 

Супер полицейские Майами / Miami supercops

Страна: Италия
Жанр: боевик, комедия, криминал
Год выпуска: 1985
Продолжительность: 01:36:59

Перевод: Авторский (одноголосый закадровый), А. Гаврилов
Cубтитры: русские, английские
Оригинальная аудиодорожка: английский

Режиссер: Бруно Корбуччи / Bruno Corbucci

В ролях: Теренс Хилл, Бад Спенсер, С.Б. Сиэй, Уильям «Бо» Джим, Кен Кересн, Джеки Кастеллано, С.В. Вуд мл., Ричард Либерти, Ронда С. Лундстид, Баффи Ди

Описание: В 1978 году трое грабителей украли из Детройтского Национального Банка 20 миллионов долларов. Один из них вскоре после ограбления был найден мертвым, второй бесследно изчез, а третий был пойман и отсидев 8 лет в тюрьме вышел на свободу. Теперь он хочет найти подельников и забрать у них свою долю. Агенты ФБР Даг Беннет и Стив Форрест работающие под прикрытием, во что бы то ни стало должны схватить преступников и вернуть похищенные деньги...



Доп. информация: за работу над дорогой благодарим Linger babe

Исходник: Miami Supercops 1985 1080p EUR Blu-ray AVC DTS-HD MA 2.0 @ HDBits
Качество видео: BDRip-AVC
Формат видео: MKV
Видео кодек: x264
Видео: AVC 960x540 (16:9), 23.976 fps, ~4500 Kbps, 0.36 bit/pixel

Sample
Аудио #1: Russian AC3 2ch 48kHz 192Kbps | AVO Гаврилов
Аудио #2: English AC3 2ch 48kHz 192Kbps | Original
Формат субтитров: softsub (SRT)
Главы: есть

General
Complete name : E:...Miami.Supercops.1985.BDRip.x264.DD2.0.Rus.AVO.Eng-E76.mkv
Format : Matroska
Format version : Version 2
File size : 3.30 GiB
Duration : 1h 36mn
Overall bit rate : 4 876 Kbps
Movie name : Miami.Supercops.1985.BDRip.x264.DD2.0.Rus.AVO.Eng-E76
Encoded date : UTC 2014-07-30 22:13:36
Writing application : mkvmerge v7.0.0 ('Where We Going') 64bit built on Jun 9 2014 15:16:27
Writing library : libebml v1.3.0 + libmatroska v1.4.1

Video
ID : 1
Format : AVC
Format/Info : Advanced Video Codec
Format profile : High@L4.1
Format settings, CABAC : Yes
Format settings, ReFrames : 12 frames
Codec ID : V_MPEG4/ISO/AVC
Duration : 1h 36mn
Bit rate : 4 490 Kbps
Width : 960 pixels
Height : 540 pixels
Display aspect ratio : 16:9
Frame rate mode : Constant
Frame rate : 23.976 fps
Color space : YUV
Chroma subsampling : 4:2:0
Bit depth : 8 bits
Scan type : Progressive
Bits/(Pixel*Frame) : 0.361
Stream size : 2.98 GiB (90%)
Title : Encode by E76
Writing library : x264 core 142 r2431kMod ac76440
Encoding settings : cabac=1 / ref=12 / deblock=1:-2:-2 / analyse=0x3:0x113 / me=umh / subme=10 / psy=1 / fade_compensate=0.00 / psy_rd=1.10:0.00 / mixed_ref=1 / me_range=32 / chroma_me=1 / trellis=2 / 8x8dct=1 / cqm=0 / deadzone=21,11 / fast_pskip=0 / chroma_qp_offset=-2 / threads=6 / lookahead_threads=1 / sliced_threads=0 / nr=0 / decimate=0 / interlaced=0 / bluray_compat=0 / constrained_intra=0 / fgo=0 / bframes=14 / b_pyramid=2 / b_adapt=2 / b_bias=0 / direct=3 / weightb=1 / open_gop=0 / weightp=2 / keyint=240 / keyint_min=23 / scenecut=40 / intra_refresh=0 / rc_lookahead=0 / rc=2pass / mbtree=0 / bitrate=4490 / ratetol=1.0 / qcomp=0.70 / qpmin=0 / qpmax=69 / qpstep=4 / cplxblur=20.0 / qblur=0.5 / vbv_maxrate=50000 / vbv_bufsize=62500 / nal_hrd=none / filler=0 / ip_ratio=1.40 / pb_ratio=1.30 / aq=1:1.00
Language : English
Default : Yes
Forced : No
Matrix coefficients : BT.709

Audio #1
ID : 2
Format : AC-3
Format/Info : Audio Coding 3
Mode extension : CM (complete main)
Format settings, Endianness : Big
Codec ID : A_AC3
Duration : 1h 36mn
Bit rate mode : Constant
Bit rate : 192 Kbps
Channel(s) : 2 channels
Channel positions : Front: L R
Sampling rate : 48.0 KHz
Bit depth : 16 bits
Compression mode : Lossy
Stream size : 133 MiB (4%)
Title : AVO Gavrilov
Language : Russian
Default : Yes
Forced : No

Audio #2
ID : 3
Format : AC-3
Format/Info : Audio Coding 3
Mode extension : CM (complete main)
Format settings, Endianness : Big
Codec ID : A_AC3
Duration : 1h 36mn
Bit rate mode : Constant
Bit rate : 192 Kbps
Channel(s) : 2 channels
Channel positions : Front: L R
Sampling rate : 48.0 KHz
Bit depth : 16 bits
Compression mode : Lossy
Stream size : 133 MiB (4%)
Title : Original
Language : English
Default : No
Forced : No

Text #1
ID : 4
Format : UTF-8
Codec ID : S_TEXT/UTF8
Codec ID/Info : UTF-8 Plain Text
Title : Eаzin
Language : Russian
Default : No
Forced : No

Text #2
ID : 5
Format : UTF-8
Codec ID : S_TEXT/UTF8
Codec ID/Info : UTF-8 Plain Text
Language : English
Default : No
Forced : No

Menu
00:00:00.000 : en:00:00:00.000
00:12:45.014 : en:00:12:45.014
00:23:27.239 : en:00:23:27.239
00:34:34.614 : en:00:34:34.614
00:46:12.937 : en:00:46:12.937
00:55:25.364 : en:00:55:25.364
01:08:25.935 : en:01:08:25.935
01:21:33.972 : en:01:21:33.972

--[Information] [27.07.2014 10:21:31] x264 [info]: frame I:1032 Avg QP:17.15 size: 87661
--[Information] [27.07.2014 10:21:31] x264 [info]: frame P:23973 Avg QP:19.87 size: 42102
--[Information] [27.07.2014 10:21:31] x264 [info]: frame B:114501 Avg QP:21.56 size: 18914
--[Information] [27.07.2014 10:21:31] x264 [info]: consecutive B-frames: 1.1% 0.7% 2.4% 9.7% 12.0% 46.0% 9.2% 2.9% 4.5% 4.1% 2.4% 1.9% 1.4% 1.4% 0.4%
--[Information] [27.07.2014 10:21:31] x264 [info]: kb/s:4489.69



Скачать Суперполицейские.из.Майами.Miami.supercops.(Бруно.Корбуччи).[1985.боевик.комедия.криминал.BDRip-AVC].[AVO.(А.Гаврилов)]+[Оригинал]+[Sub]x2.torrent без регистрации
Золото ЗОЛОТАЯ РАЗДАЧА! СКАЧАННОЕ НЕ ЗАСЧИТЫВАЕТСЯ! Золото
Дата: Зарегистрирован   [ Тип: внутренний ] Как тут cкачать?
MAGNET ссылка
MAGNET ссылка


Скачать .torrent

17 KB

Статус: проверено DHT
Скачан: торрент - 97 раз, раздача полностью - 3 раз
Размер: 3,3 GB
Оценка:  - (Голосов: 0)
Поблагодарили: 0
Поделиться ссылкой на эту раздачу с друзьями:
В контактеFacebookОдноклассникиTwitterLivejournalМой МирLiveinternet
 

 
Показать сообщения:    


Вы не можете начинать темы
Вы не можете отвечать на сообщения
Вы не можете редактировать свои сообщения
Вы не можете удалять свои сообщения
Вы не можете голосовать в опросах
Вы не можете прикреплять файлы к сообщениям
Вы можете скачивать файлы