Loading...
Error

Скачать Улица потрошителя / Ripper Street (Полный 3-ий сезон) (Энди Уилсон, Сол Метцштайн) [2014 г., драма, криминальный, WEBRip-AVC] [ENG] торрент без регистрации

 
Статистика раздачи
Размер:  2,99 GB   |    Скачан:  186 раз
Сидов:  1  [  0 KB/s  ]  
 
Автор Сообщение

leon030982

[] 


Улица потрошителя | Ripper Street



Год выпуска: 2014
Страна: Великобритания
Жанр: драма, детектив
Продолжительность: 8х~ 01:03:00
Перевод: Отсутствует ! [английский оригинал]
Субтитры: нет

Режиссер: Энди Уилсон, Сол Метцштайн

В ролях: Мэтью Макфейден, Джером Флинн, Адам Ротенберг, Jonathan Barnwell, Дэвид Уилмот, МайАнна Бёринг, Шарлин МакКенна, Ian Bannon, Аманда Хейл, Ребекка Граймс и др.
Описание: События данного сериала разворачиваются в Лондоне 1899 года, сразу после громких убийств, совершенных Джеком Потрошителем. Команда детективов расследует преступления, попутно стараясь успокоить панику среди жителей Ист-Энда.



Качество: WEBRip-AVC
Формат: MKV
Видео кодек: AVC
Аудио кодек: AAC
Видео: AVC, 720x404, 910 Кбит/с, 25.000 fps, Bits/(Pixel*Frame) : 0.121
Аудио: 44.1 KHz, AAC, 2 ch, 140 Кбит/с

Код:

 
1.  «Конец Уайтчепела»
«Whitechapel Terminus» 
2.  «Взмах её крыльев»
«The Beating of Her Wings»
3.  «Пепел и алмазы»
«Ashes and Diamonds»
4.  «Твой отец, мой друг»
«Your Father, My Friend» 
5.  «Тяжёлые сапоги»
«Heavy Boots»
6.  «Неопровержимая истина»
«The Incontrovertible Truth» 
7.  «Живи свободно, живи праведно»
«Live Free, Live True»
8.  «Покой Эдмунда Рида»
«The Peace of Edmund Reid» 

Код:

General
Complete name                    : E:\Ripper Street_S03 (Completed)\Ripper.Street.S03E01.Whitechapel.Terminus.WEBRip.x264-FaiLED.mp4
Format                           : MPEG-4
Format profile                   : Base Media
Codec ID                         : isom
File size                        : 439 MiB
Duration                         : 1h 6mn
Overall bit rate                 : 1026 Kbps
Encoded date                     : UTC 2014-11-16 11:28:45
Tagged date                      : UTC 2014-11-16 11:28:45

Video
ID                               : 1
Format                           : AVC
Format/Info                      : Advanced Video Codec
Format profile                   : High@L4.1
Format settings, CABAC           : Yes
Format settings, ReFrames        : 5 frames
Format settings, GOP             : M=1, N=52
Codec ID                         : avc1
Codec ID/Info                    : Advanced Video Coding
Duration                         : 1h 6mn
Bit rate mode                    : Variable
Bit rate                         : 910 Kbps
Maximum bit rate                 : 3 940 Kbps
Width                            : 720 pixels
Height                           : 404 pixels
Display aspect ratio             : 16:9
Frame rate mode                  : Constant
Frame rate                       : 25.000 fps
Color space                      : YUV
Chroma subsampling               : 4:2:0
Bit depth                        : 8 bits
Scan type                        : Progressive
Bits/(Pixel*Frame)               : 0.121
Stream size                      : 384 MiB (87%)
Writing library                  : x264 core 142 r2479 dd79a61
Encoding settings                : cabac=1 / ref=5 / deblock=1:0:0 / analyse=0x3:0x113 / me=umh / subme=8 / psy=1 / psy_rd=1.00:0.00 / mixed_ref=1 / me_range=16 / chroma_me=1 / trellis=1 / 8x8dct=1 / cqm=0 / deadzone=21,11 / fast_pskip=1 / chroma_qp_offset=-2 / threads=12 / lookahead_threads=2 / sliced_threads=0 / nr=0 / decimate=1 / interlaced=0 / bluray_compat=0 / constrained_intra=0 / bframes=3 / b_pyramid=2 / b_adapt=2 / b_bias=0 / direct=3 / weightb=1 / open_gop=0 / weightp=2 / keyint=250 / keyint_min=25 / scenecut=40 / intra_refresh=0 / rc_lookahead=50 / rc=crf / mbtree=1 / crf=19.0 / qcomp=0.60 / qpmin=0 / qpmax=69 / qpstep=4 / ip_ratio=1.40 / aq=1:1.00
Encoded date                     : UTC 2014-11-16 11:18:33
Tagged date                      : UTC 2014-11-16 11:28:48
Color primaries                  : BT.709-5, BT.1361, IEC 61966-2-4, SMPTE RP177
Transfer characteristics         : BT.709-5, BT.1361
Matrix coefficients              : BT.709-5, BT.1361, IEC 61966-2-4 709, SMPTE RP177

Audio
ID                               : 2
Format                           : AAC
Format/Info                      : Advanced Audio Codec
Format profile                   : LC
Codec ID                         : 40
Duration                         : 1h 6mn
Bit rate mode                    : Variable
Bit rate                         : 112 Kbps
Maximum bit rate                 : 140 Kbps
Channel(s)                       : 2 channels
Channel positions                : Front: L R
Sampling rate                    : 44.1 KHz
Compression mode                 : Lossy
Stream size                      : 53.2 MiB (12%)
Encoded date                     : UTC 2014-11-16 10:18:26
Tagged date                      : UTC 2014-11-16 11:28:48





Скачать Улица.потрошителя.Ripper.Street.(Полный.3-ий.сезон).(Энди.Уилсон.Сол.Метцштайн).[2014.г.драма.криминальный.WEBRip-AVC].[ENG].torrent без регистрации
Золото ЗОЛОТАЯ РАЗДАЧА! СКАЧАННОЕ НЕ ЗАСЧИТЫВАЕТСЯ! Золото
Дата: Зарегистрирован   [ Тип: внутренний ] Как тут cкачать?
MAGNET ссылка
MAGNET ссылка


Скачать .torrent

16 KB

Статус: проверено DHT
Скачан: торрент - 186 раз, раздача полностью - 17 раз
Размер: 2,99 GB
Оценка:  5 (Голосов: 2)
Поблагодарили: 2
Поделиться ссылкой на эту раздачу с друзьями:
В контактеFacebookОдноклассникиTwitterLivejournalМой МирLiveinternet
 

 
Показать сообщения:    


Вы не можете начинать темы
Вы не можете отвечать на сообщения
Вы не можете редактировать свои сообщения
Вы не можете удалять свои сообщения
Вы не можете голосовать в опросах
Вы не можете прикреплять файлы к сообщениям
Вы можете скачивать файлы