Loading...
Error

Скачать Индевор / Стремление / Молодой Морс / Endeavour (сезон 02) (Кристоффер Найхолм) [2014, драма, детектив, HDTV] [720p] [VO (den904)]+[Eng]+[Sub Eng] торрент без регистрации

 
Статистика раздачи
Размер:  5,28 GB   |    Скачан:  179 раз
Сидов:  1  [  0 KB/s  ]  
 
Автор Сообщение

МихаНЕзатор

[] 

Индевор / Стремление / Молодой Морс / Endeavour



Год выпуска: 2014
Страна: Великобритания
Жанр: драма, детектив
Продолжительность: ~01:29:09 x 4
Озвучено: Любительский (одноголосый, закадровый) den904
Перевод: Skyworker
Режиссёр: Кристоффер Найхолм / Kristoffer Nyholm

В ролях: Шон Эванс, Роджер Аллам, Роджер Чарли Крид-Майлс, Дэнни Вэб, Патрик Малахайд и другие ...

Описание: Блестящий английский детектив с налётом нуара. По мотивам романов Колина Декстера. О молодом Индеворе Морсе образца 1965 года. Будучи констеблем, он возвращается в родной Оксфорд. Откомандированный в качестве подкрепления для участия в крупномасштабных поисках пропавшей школьницы во главе с инспектором Фредом Фёсдэй, он начинает крестовый поход в поисках справедливости, рискуя всем ради истины.



Качество: HDTVRip 720p
Контейнер: MKV
Видео: AVC (High@L4.1) 1280x720p 16:9 25fps ~1900 Kbps
Аудио: AC-3 192 Kbps 2 ch 48.0 KHz Russian DEN904
Аудио 2: AC-3 192 Kbps 2 ch 48.0 KHz English
Субтитры: SRT Русские перевод Skyworker
Субтитры: SRT English

АНОНСЫ ПОПУЛЯРНЫХ РАЗДАЧ

Season 2, Episode 1: Trove / Находка
Season 2, Episode 2: Nocturne / Ноктюрн
Season 2, Episode 3: Sway / В танце
Season 2, Episode 4: Neverland / Небыляндия


Общее
Уникальный идентификатор : 199114732147436640386897128836289451406 (0x95CC1A3D83C0ABF9AEA348DDC592D58E)
Полное имя : Cloud://work/Endeavour.s02e01_Trove_720p.AC3.hdtv.x264.mkv
Формат : Matroska
Версия формата : Version 4 / Version 2
Размер файла : 1,47 Гбайт
Продолжительность : 1 ч. 29 м.
Общий поток : 2361 Кбит/сек
Дата кодирования : UTC 2015-01-17 01:51:16
Программа кодирования : mkvmerge v7.5.0 ('Glass Culture') 64bit built on Jan 4 2015 16:48:44
Библиотека кодирования : libebml v1.3.1 + libmatroska v1.4.2
DURATION : 01:29:09.248000000
NUMBER_OF_FRAMES : 167164
NUMBER_OF_BYTES : 85587968
_STATISTICS_WRITING_APP : mkvmerge v7.5.0 ('Glass Culture') 64bit built on Jan 4 2015 16:48:44
_STATISTICS_WRITING_DATE_UTC : 2015-01-17 01:51:16
_STATISTICS_TAGS : BPS DURATION NUMBER_OF_FRAMES NUMBER_OF_BYTES

Видео
Идентификатор : 1
Формат : AVC
Формат/Информация : Advanced Video Codec
Профиль формата : High@L4.1
Параметр CABAC формата : Да
Параметр ReFrames формата : 5 кадров
Идентификатор кодека : V_MPEG4/ISO/AVC
Продолжительность : 1 ч. 29 м.
Битрейт : 1994 Кбит/сек
Ширина : 1280 пикселей
Высота : 720 пикселей
Соотношение сторон : 16:9
Режим частоты кадров : Постоянный
Частота кадров : 25,000 кадров/сек
Цветовое пространство : YUV
Субдискретизация насыщенности : 4:2:0
Битовая глубина : 8 бит
Тип развёртки : Прогрессивная
Бит/(Пиксели*Кадры) : 0.087
Размер потока : 1,24 Гбайт (84%)
Библиотека кодирования : x264 core 142 r2409 d6b4e63
Настройки программы : cabac=1 / ref=5 / deblock=1:0:0 / analyse=0x3:0x113 / me=umh / subme=8 / psy=1 / psy_rd=1.00:0.00 / mixed_ref=1 / me_range=16 / chroma_me=1 / trellis=1 / 8x8dct=1 / cqm=0 / deadzone=21,11 / fast_pskip=1 / chroma_qp_offset=-2 / threads=12 / lookahead_threads=2 / sliced_threads=0 / nr=0 / decimate=1 / interlaced=0 / bluray_compat=0 / constrained_intra=0 / bframes=3 / b_pyramid=2 / b_adapt=2 / b_bias=0 / direct=3 / weightb=1 / open_gop=0 / weightp=2 / keyint=250 / keyint_min=25 / scenecut=40 / intra_refresh=0 / rc_lookahead=50 / rc=crf / mbtree=1 / crf=18.0 / qcomp=0.60 / qpmin=0 / qpmax=69 / qpstep=4 / ip_ratio=1.40 / aq=1:1.00
Язык : English
Default : Да
Forced : Нет
Коэффициенты матрицы : BT.709
colour_range : Limited
DURATION : 01:29:09.360000000
NUMBER_OF_FRAMES : 133734
NUMBER_OF_BYTES : 1363261018
_STATISTICS_WRITING_APP : mkvmerge v7.5.0 ('Glass Culture') 64bit built on Jan 4 2015 16:48:44
_STATISTICS_WRITING_DATE_UTC : 2015-01-17 01:51:16
_STATISTICS_TAGS : BPS DURATION NUMBER_OF_FRAMES NUMBER_OF_BYTES

Аудио #1
Идентификатор : 4
Формат : AC-3
Формат/Информация : Audio Coding 3
Расширение режима : CM (complete main)
Параметр Endianness формата : Big
Идентификатор кодека : A_AC3
Продолжительность : 1 ч. 29 м.
Вид битрейта : Постоянный
Битрейт : 192 Кбит/сек
Каналы : 2 канала
Расположение каналов : Front: L R
Частота : 48,0 КГц
Битовая глубина : 16 бит
Метод сжатия : С потерями
Размер потока : 122 Мбайт (8%)
Язык : Russian
Default : Да
Forced : Да

Аудио #2
Идентификатор : 5
Формат : AC-3
Формат/Информация : Audio Coding 3
Расширение режима : CM (complete main)
Параметр Endianness формата : Big
Идентификатор кодека : A_AC3
Продолжительность : 1 ч. 29 м.
Вид битрейта : Постоянный
Битрейт : 128 Кбит/сек
Каналы : 2 канала
Расположение каналов : Front: L R
Частота : 48,0 КГц
Битовая глубина : 16 бит
Метод сжатия : С потерями
Размер потока : 81,6 Мбайт (5%)
Язык : English
Default : Нет
Forced : Нет

Текст #1
Идентификатор : 2
Формат : UTF-8
Идентификатор кодека : S_TEXT/UTF8
Идентификатор кодека/Информация : UTF-8 Plain Text
Язык : English
Default : Нет
Forced : Нет

Текст #2
Идентификатор : 3
Формат : UTF-8
Идентификатор кодека : S_TEXT/UTF8
Идентификатор кодека/Информация : UTF-8 Plain Text
Язык : Russian
Default : Нет
Forced : Нет



Скачать Индевор.Стремление.Молодой.Морс.Endeavour.(сезон.02).(Кристоффер.Найхолм).[2014.драма.детектив.HDTV].[720p].[VO.(den904)]+[Eng]+[Sub.Eng].torrent без регистрации
Золото ЗОЛОТАЯ РАЗДАЧА! СКАЧАННОЕ НЕ ЗАСЧИТЫВАЕТСЯ! Золото
Дата: Зарегистрирован   [ Тип: внутренний ] Как тут cкачать?
MAGNET ссылка
MAGNET ссылка


Скачать .torrent

14 KB

Статус: проверено DHT
Скачан: торрент - 179 раз, раздача полностью - 280 раз
Размер: 5,28 GB
Оценка:  - (Голосов: 0)
Поблагодарили: 1
Поделиться ссылкой на эту раздачу с друзьями:
В контактеFacebookОдноклассникиTwitterLivejournalМой МирLiveinternet
 

 
Показать сообщения:    


Вы не можете начинать темы
Вы не можете отвечать на сообщения
Вы не можете редактировать свои сообщения
Вы не можете удалять свои сообщения
Вы не можете голосовать в опросах
Вы не можете прикреплять файлы к сообщениям
Вы можете скачивать файлы