Loading...
Error

Скачать Один Восемь Семь (187) / One Eight Seven (Кевин Рейнолдс) [1997, триллер, драма, WEBRip] [DVO] торрент без регистрации

 
Статистика раздачи
Размер:  1,46 GB   |    Скачан:  109 раз

Полного источника не было: 24 минуты

 
Автор Сообщение

Marsianka

[] 

Информация о фильме
Название: Один Восемь Семь (187)
Оригинальное название: One Eight Seven
Год выхода: 1997
Жанр: триллер, драма
Режиссер: Кевин Рейнолдс
В ролях: Сэмюэл Л. Джексон, Джон Хёрд, Келли Рауэн, Клифтон Гонсалес Гонсалес, Тони Плана, Карина Арройяве, Лобо Себастиан, Джек Келер, Джона Руни, Клифтон Коллинз мл., Энтвон Тэннер, Деметриус Наварро, Доминик Хоффман, Метод Мэн, Гай Торри, Ричард Рили, Лобо Себастьян, Джонни Богрис, Лиза Дель Мундо

О фильме:
Где обитают ублюдки? Учитель из Бруклина Тревор Гарфилд видит их каждый день в школе. Это готовые бандиты, от которых можно ждать чего угодно. Один из них из мести совершает попытку убить Гарфилда. После этого Гарфилд переезжает в Лос-Анджелес и... оказывается в таком же дерьме. Когда его терпению пришёл конец, он заставил подонков расплачиваться кровью за каждый совершённый проступок.

Страна: США, Warner Bros. Pictures, Icon Productions
Продолжительность: 01:59:01
Перевод: Профессиональный (двухголосый закадровый)



Файл
Кодек: XviD
Качество: WEBRip
Видео: 720x400, 23,976 fps, 1557 kbps
Звук: AC3, 2 ch, 192 kbps
Общее
Полное имя : One.Eight.Seven.1997.WEBRip.avi
Формат : AVI
Формат/Информация : Audio Video Interleave
Размер файла : 1,46 Гбайт
Продолжительность : 1 ч. 59 м.
Общий поток : 1758 Кбит/сек
Программа кодирования : VirtualDubMod 1.5.10.3 | www.virtualdub-fr.org || (build 2550/release)
Библиотека кодирования : VirtualDubMod build 2550/release

Видео
Идентификатор : 0
Формат : MPEG-4 Visual
Профиль формата : Advanced Simple@L5
Параметр BVOP формата : 1
Параметр QPel формата : Нет
Параметр GMC формата : Без точки перехода
Параметр матрицы формата : Выборочная
Идентификатор кодека : XVID
Идентификатор кодека/Подсказка : XviD
Продолжительность : 1 ч. 59 м.
Битрейт : 1557 Кбит/сек
Ширина : 720 пикс.
Высота : 400 пикс.
Соотношение сторон : 16:9
Частота кадров : 23,976 кадр/сек
Цветовое пространство : YUV
Подвыборка цветности : 4:2:0
Битовая глубина : 8 бит
Тип развёртки : Прогрессивная
Метод сжатия : С потерями
Бит/(Пиксели*Кадры) : 0.225
Размер потока : 1,29 Гбайт (89%)
Библиотека кодирования : XviD 73

Аудио
Идентификатор : 1
Формат : AC-3
Формат/Информация : Audio Coding 3
Расширение режима : CM (complete main)
Идентификатор кодека : 2000
Продолжительность : 1 ч. 59 м.
Вид битрейта : Постоянный
Битрейт : 192 Кбит/сек
Канал(ы) : 2 канала(ов)
Расположение каналов : Front: L R
Частота : 48,0 КГц
Битовая глубина : 16 бит
Метод сжатия : С потерями
Размер потока : 163 Мбайт (11%)
Выравнивание : Разделение по промежуткам
Продолжительность промежутка : 42 мс. (1,00 видеокадр)
Время предзагрузки промежутка : 500 ms
Релиз от: Leon-masl



Скачать Один.Восемь.Семь.(187).One.Eight.Seven.(Кевин.Рейнолдс).[1997.триллер.драма.WEBRip].[DVO].torrent без регистрации
Золото ЗОЛОТАЯ РАЗДАЧА! СКАЧАННОЕ НЕ ЗАСЧИТЫВАЕТСЯ! Золото
Дата: Зарегистрирован   [ Тип: внутренний ] Как тут cкачать?
MAGNET ссылка
MAGNET ссылка


Скачать .torrent

15 KB

Статус: проверено DHT
Скачан: торрент - 109 раз, раздача полностью - 6 раз
Размер: 1,46 GB
Оценка:  - (Голосов: 0)
Поблагодарили: 0
Поделиться ссылкой на эту раздачу с друзьями:
В контактеFacebookОдноклассникиTwitterLivejournalМой МирLiveinternet
 

 
Показать сообщения:    


Вы не можете начинать темы
Вы не можете отвечать на сообщения
Вы не можете редактировать свои сообщения
Вы не можете удалять свои сообщения
Вы не можете голосовать в опросах
Вы не можете прикреплять файлы к сообщениям
Вы можете скачивать файлы