Loading...
Error

Скачать Элени / Eleni (Питер Йетс) [1985, драма, военный, DVDRip] [Sub]x2 торрент без регистрации

 
Статистика раздачи
Размер:  2,04 GB   |    Скачан:  93 раза
Сидов:  1  [  0 KB/s  ]  
 
Автор Сообщение

Marsianka

[] 

Информация о фильме
Название: Элени
Оригинальное название: Eleni
Год выхода: 1985
Жанр: драма, военный
Режиссер: Питер Йетс / Peter Yates
В ролях: Кейт Неллиган, Джон Малкович, Линда Хант, Оливер Коттон, Рональд Пикап, Розали Кратчли, Гленн Хедли, Димитра Арлисс, Стив Плайтас, Питер Вудторп

О фильме:
Репортёр «Нью-Йорк Таймс» греческого происхождения Николас Гейдж пытается выяснить обстоятельства убийства своей матери во время Гражданской войны в Греции.



Страна: США
Продолжительность: 01:52:32
Перевод: Субтитры (doc_ravik)

Файл
Кодек: DivX
Качество: DVDRip
Видео: 640x480 (4:3), 25.000 fps, DivX, 2 395 Kbps, 0.312 bit/pixel
Звук: 48 kHz, AC3, 2/0 (L,R) ch, ~192.00 kbps avg
Субтитры: русские, английские

Семпл
1
00:01:10,190 --> 00:01:15,799
ЭЛЕНИ

2
00:03:06,340 --> 00:03:08,034
Я не знаю их имен.

3
00:03:08,630 --> 00:03:11,144
- И вы собираетесь вернуться?
- Может быть.

4
00:03:11,366 --> 00:03:14,338
Какие преступления вы
совершили во время войны?

5
00:03:14,880 --> 00:03:17,010
Я думал, мы не будем
касаться этой темы.

6
00:03:17,204 --> 00:03:21,436
Вам не о чем беспокоиться. Вас не могут
привлечь. Так почему бы не рассказать?

7
00:03:21,856 --> 00:03:24,596
Какие преступления вы
совершили во время войны?

8
00:03:24,929 --> 00:03:27,727
Когда я их совершал, они
еще не были преступлениями.

9
00:03:28,030 --> 00:03:30,674
Они стали ими после того,
как мы проиграли войну.

10
00:03:30,966 --> 00:03:34,104
- Ларри вызывает тебя, Ник.
- Это может подождать?

11
00:03:34,980 --> 00:03:36,495
Почему? В чем дело?

12
00:03:38,447 --> 00:03:41,166
- Ты получил эту работу.
- В Афинах?

13
00:03:41,674 --> 00:03:43,338
Но я тебе не говорила, окей?

14
00:03:43,920 --> 00:03:45,229
Не говорила о чем?

15
00:03:45,875 --> 00:03:47,064
Поздравляю.

16
00:04:18,360 --> 00:04:19,312
Пап?

17
00:04:37,952 --> 00:04:39,156
Никки.

18
00:04:40,460 --> 00:04:44,843
Пап, если ты засыпаешь перед телевизором,
ты не будешь в курсе новостей.

19
00:04:46,486 --> 00:04:50,101
Я знаю, но когда я смотрю эти новости,

20
00:04:50,422 --> 00:04:55,437
я так расстраиваюсь, что
не могу уснуть ночью.
General
Complete name : G:TorrentsМоиEleni.1985.subs.DVDRipEleni.1985.DVDRip.avi
Format : AVI
Format/Info : Audio Video Interleave
Format profile : OpenDML
File size : 2.04 GiB
Duration : 1h 52mn
Overall bit rate : 2 600 Kbps
Writing application : VirtualDubMod 1.5.10.3 | www.virtualdub-fr.org || (build 2550/release)
Writing library : VirtualDubMod build 2550/release

Video
ID : 0
Format : MPEG-4 Visual
Format profile : Advanced Simple@L5
Format settings, BVOP : 1
Format settings, QPel : No
Format settings, GMC : No warppoints
Format settings, Matrix : Default (MPEG)
Codec ID : DX50
Codec ID/Hint : DivX 5
Duration : 1h 52mn
Bit rate : 2 395 Kbps
Width : 640 pixels
Height : 480 pixels
Display aspect ratio : 4:3
Frame rate : 25.000 fps
Color space : YUV
Chroma subsampling : 4:2:0
Bit depth : 8 bits
Scan type : Progressive
Compression mode : Lossy
Bits/(Pixel*Frame) : 0.312
Stream size : 1.88 GiB (92%)
Writing library : XviD 1.2.1 (UTC 2008-12-04)

Audio
ID : 1
Format : AC-3
Format/Info : Audio Coding 3
Mode extension : CM (complete main)
Codec ID : 2000
Duration : 1h 52mn
Bit rate mode : Constant
Bit rate : 192 Kbps
Channel(s) : 2 channels
Channel positions : Front: L R
Sampling rate : 48.0 KHz
Bit depth : 16 bits
Compression mode : Lossy
Stream size : 155 MiB (7%)
Alignment : Split accross interleaves
Interleave, duration : 40 ms (1.00 video frame)
Interleave, preload duration : 500 ms



Скачать Элени.Eleni.(Питер.Йетс).[1985.драма.военный.DVDRip].[Sub]x2.torrent без регистрации
Золото ЗОЛОТАЯ РАЗДАЧА! СКАЧАННОЕ НЕ ЗАСЧИТЫВАЕТСЯ! Золото
Дата: Зарегистрирован   [ Тип: внутренний ] Как тут cкачать?
MAGNET ссылка
MAGNET ссылка


Скачать .torrent

11 KB

Статус: проверено DHT
Скачан: торрент - 93 раз, раздача полностью - 1 раз
Размер: 2,04 GB
Оценка:  - (Голосов: 0)
Поблагодарили: 0
Поделиться ссылкой на эту раздачу с друзьями:
В контактеFacebookОдноклассникиTwitterLivejournalМой МирLiveinternet
 

 
Показать сообщения:    


Вы не можете начинать темы
Вы не можете отвечать на сообщения
Вы не можете редактировать свои сообщения
Вы не можете удалять свои сообщения
Вы не можете голосовать в опросах
Вы не можете прикреплять файлы к сообщениям
Вы можете скачивать файлы