Loading...
Error

Скачать Чёрный Цезарь / Black Caesar (Ларри Коэн / Larry Cohen) [1973, Криминальная драма, HDTVRip] [AVO] (Д.Деньщиков) торрент без регистрации

 
Статистика раздачи
Размер:  1,2 GB   |    Скачан:  112 раз
Сидов:  1  [  0 KB/s  ]  
 
Автор Сообщение

leon030982

[] 

Чёрный Цезарь / Black Caesar


Год выпуска: 1973
Страна: США
Студия: American International Pictures (AIP), Larco Productions
Жанр: Криминальная драма
Продолжительность: 01:31:06
Перевод: Авторский (одноголосный, закадровый) [Д.Деньщиков aka "Пять Плюх / 5P"]
Cубтитры: нет

Режиссер: Ларри Коэн / Larry Cohen

В ролях: Фред Уильямсон /Fred Williamson/, Глория Хендри /Gloria Hendry/, Арт Лунд /Art Lund/, Джулиус Харрис /Julius Harris/, Минни Гентри /Minnie Gentry/, Уильям Веллман мл. /William Wellman Jr./, Джеймс Диксон /James Dixon/, Вэл Эйвери /Val Avery

Описание: Гарлем. 1960-ые годы. Молодой и предприимчивый темнокожий бандит Томми Гиббс (Фред Уильямсон - "От заката до рассвета"), преследуемый воспоминаниями о не очень-то легком детстве, протаптывает себе дорогу в мафиозные верхушки Нью-Йорка. Естественно, дорога та не одуванчиками была устлана, а трупами итальянского клана, место которого и занял Томми. Завладев бухгалтерскими книгами, содержащими тонны компромата, он сделал себя практически неприкосновенным. Однако спрос на эти книги тем временем всё возрастает...


IMDB

Качество: HDTVRip-AVC
Формат: MKV
Видео кодек: AVC
Аудио кодек: AC3
Видео: V_MPEG4/ISO/AVC, 720x480, 50.000 fps, 1600 Kbps, Bits/(Pixel*Frame) : 0.117
Аудио №1: 48.0 KHz, AC3, 2ch, 192kbps [стилизованный]
Аудио №2: 48.0 KHz, AC3, 2ch, 192kbps [обычный]

Цитата:

Авторский перевод и озвучка: Дмитрий Деньщиков aka "Пять Плюх / 5P".
Работа со звуком: Евгений "Fat Chop"

Дороги: (2 версии: чистая и стилизованная под оригинальный звук)

Код:

General
Unique ID                        : 233108068864531277378142117000576287916 (0xAF5EFB23803057269918F17CB7ACC4AC)
Complete name                    : E:\INTERNET\Black Caesar_HDTV480 5P.mkv
Format                           : Matroska
File size                        : 1.20 GiB
Duration                         : 1h 31mn
Overall bit rate                 : 1 986 Kbps
Encoded date                     : UTC 2015-01-16 22:04:09
Writing application              : mkvmerge v6.7.0 ('Back to the Ground') 64bit built on Jan  8 2014 15:10:52
Writing library                  : libebml v1.3.0 + libmatroska v1.4.1
Cover                            : Yes

Video
ID                               : 1
Format                           : AVC
Format/Info                      : Advanced Video Codec
Format profile                   : High@L3.1
Format settings, CABAC           : Yes
Format settings, ReFrames        : 2 frames
Codec ID                         : V_MPEG4/ISO/AVC
Duration                         : 1h 31mn
Bit rate                         : 1 600 Kbps
Width                            : 720 pixels
Height                           : 480 pixels
Display aspect ratio             : 3:2
Frame rate mode                  : Variable
Frame rate                       : 50.000 fps
Standard                         : NTSC
Color space                      : YUV
Chroma subsampling               : 4:2:0
Bit depth                        : 8 bits
Scan type                        : Progressive
Bits/(Pixel*Frame)               : 0.117
Stream size                      : 954 MiB (78%)
Writing library                  : x264 core 129
Encoding settings                : cabac=1 / ref=2 / deblock=1:0:0 / analyse=0x3:0x113 / me=hex / subme=8 / psy=1 / psy_rd=1.00:0.00 / mixed_ref=1 / me_range=16 / chroma_me=1 / trellis=0 / 8x8dct=1 / cqm=0 / deadzone=21,11 / fast_pskip=1 / chroma_qp_offset=-2 / threads=4 / lookahead_threads=1 / sliced_threads=0 / nr=0 / decimate=1 / interlaced=0 / bluray_compat=0 / constrained_intra=0 / bframes=0 / weightp=2 / keyint=250 / keyint_min=25 / scenecut=40 / intra_refresh=0 / rc_lookahead=40 / rc=2pass / mbtree=1 / bitrate=1500 / ratetol=1.0 / qcomp=0.60 / qpmin=10 / qpmax=51 / qpstep=4 / cplxblur=20.0 / qblur=0.5 / ip_ratio=1.41 / aq=1:1.00

Audio #1
ID                               : 2
Format                           : AC-3
Format/Info                      : Audio Coding 3
Mode extension                   : CM (complete main)
Codec ID                         : A_AC3
Duration                         : 1h 31mn
Bit rate mode                    : Constant
Bit rate                         : 192 Kbps
Channel(s)                       : 2 channels
Channel positions                : Front: L R
Sampling rate                    : 48.0 KHz
Bit depth                        : 16 bits
Compression mode                 : Lossy
Stream size                      : 125 MiB (10%)
Title                            : 5P Ñòèëèçîâàííûé
Language                         : Russian

Audio #2
ID                               : 3
Format                           : AC-3
Format/Info                      : Audio Coding 3
Mode extension                   : CM (complete main)
Codec ID                         : A_AC3
Duration                         : 1h 31mn
Bit rate mode                    : Constant
Bit rate                         : 192 Kbps
Channel(s)                       : 2 channels
Channel positions                : Front: L R
Sampling rate                    : 48.0 KHz
Bit depth                        : 16 bits
Compression mode                 : Lossy
Stream size                      : 125 MiB (10%)
Title                            : 5P Îáû÷íûé
Language                         : Russian




Скачать Чёрный.Цезарь.Black.Caesar.(Ларри.Коэн.Larry.Cohen).[1973.Криминальная.драма.HDTVRip].[AVO].(Д.Деньщиков).torrent без регистрации
Золото ЗОЛОТАЯ РАЗДАЧА! СКАЧАННОЕ НЕ ЗАСЧИТЫВАЕТСЯ! Золото
Дата: Зарегистрирован   [ Тип: внутренний ] Как тут cкачать?
MAGNET ссылка
MAGNET ссылка


Скачать .torrent

12 KB

Статус: проверено DHT
Скачан: торрент - 112 раз, раздача полностью - 1 раз
Размер: 1,2 GB
Оценка:  - (Голосов: 0)
Поблагодарили: 1
Поделиться ссылкой на эту раздачу с друзьями:
В контактеFacebookОдноклассникиTwitterLivejournalМой МирLiveinternet
 

 
Показать сообщения:    


Вы не можете начинать темы
Вы не можете отвечать на сообщения
Вы не можете редактировать свои сообщения
Вы не можете удалять свои сообщения
Вы не можете голосовать в опросах
Вы не можете прикреплять файлы к сообщениям
Вы можете скачивать файлы