Loading...
Error

Скачать Под прицелом / Silent Trigger (Рассел Малкэй) [1996, боевик, триллер, драма, BDRip-AVC] [DVO]x2+[AVO]x4+[Оригинал]+[Sub]x2 торрент без регистрации

 
Статистика раздачи
Размер:  3,53 GB   |    Скачан:  128 раз
Сидов:  1  [  0 KB/s  ]  
 
Автор Сообщение

Marsianka

[] 

Под прицелом / Silent Trigger (1996) BDRip-AVC
от
HQCLUB



Информация о фильме:
Название: Под прицелом
Оригинальное название: Silent Trigger
Год выхода: 1996
Жанр: боевик, триллер, драма
Режиссер: Рассел Малкэй / Russell Mulcahy
В ролях: Дольф Лундгрен, Джина Беллман, Конрад Данн, Кристофер Хейердал, Эмма Стивенс, Александрия Абер, Рейнольд Робинсон, Дэйл Хэйес, Эрин Симс, Джонатан Роберт Рондо

О фильме: «Снайпер», суперкомандос, работающий на «Агентство» — законспирированную правительственную организацию, управляемую «Координатором». «Снайпер» начинает сомневаться, всматриваться в глаза и лица своих мишеней.

А его «Контролер», второй член снайперской команды, несмотря на молодость, обладает жесткой хваткой и решительностью наемного убийцы. После того, как первая миссия их снайперской команды закончилась провалом и едва их не погубила, они вновь сталкиваются при выполнении задания для «Агентства», давшего им шанс вернуться в систему.

Их мишень: автомобиль, который должен проехать по скоростному шоссе на рассвете. Им противостоят не только сомнения, призраки и беззащитная мишень. «Координатор» отдал приказ «Контролеру» уничтожить «Снайпера», если тот вновь провалит операцию.

«They trained him to kill. Now they want him dead»




Релиз от -
Автор рипа: Elheym

Выпущено: Канада, Великобритания, Algonquin Productions Limited, Cine Grande Corporation, Conquistador Entertainment, Filmline International Inc., Newmarket Capital Group LLC
Продолжительность: 01:33:42

Файл:
Формат: MKV
Качество: BDRip-AVC (источник: / Blu-ray Disc / 1080p)
Видео: 1012x430 (2.35:1), 23.976 fps, MPEG-4 AVC, ~4450 kbps avg, 0.427 bit/pixel

Размер: 3.52 GB
Сэмпл: скачать
Перевод 1: Профессиональный (двухголосый, закадровый)
Перевод 2: Профессиональный (двухголосый, закадровый) РТР
Перевод 3: Авторский (одноголосый, закадровый) П. Карцев
Перевод 4: Авторский (одноголосый, закадровый) С. Визгунов
Оригинальная аудиодорожка: английская
Субтитры: русские (полные), английские (полные х2, полные SDH)
Главы: присутствуют, сохранены оригинальные

Дополнительные аудиодорожки:
+ Авторский (одноголосый, закадровый) П. Карцев
+ Авторский (одноголосый, закадровый) С. Визгунов
Аудио #1: 48 kHz, AC3 Dolby Digital, 2/0 (L,R) ch, ~192 kbps avg (DVO)
Аудио #2: 48 kHz, AC3 Dolby Digital, 2/0 (L,R) ch, ~192 kbps avg (DVO.RTR)
Аудио #3: 48 kHz, AC3 Dolby Digital, 3/2 (L,C,R,l,r) + LFE ch, ~448 kbps avg (ENG)
Аудио #4: 48 kHz, AC3 Dolby Digital, 2/0 (L,R) ch, ~224 kbps avg (AVO.KARCEV) (отдельно)
Аудио #5: 48 kHz, AC3 Dolby Digital, 3/2 (L,C,R,l,r) + LFE ch, ~448 kbps avg (AVO.VIZGUNOV) (отдельно)

Уникальный идентификатор : 188947079821819403313936298496946126477 (0x8E25E246D56E63A38C613740AC58BE8D)
Полное имя : Silent.Trigger.1996.TRIPLE.BDRip-AVC.x264.AC3.-HQCLUB.mkv
Формат : Matroska
Версия формата : Version 2
Размер файла : 3,53 Гбайт
Продолжительность : 1 ч. 33 м.
Общий поток : 5390 Кбит/сек
Дата кодирования : UTC 2015-01-18 13:13:41
Программа кодирования : mkvmerge v5.2.0 ('I can't explain') built on Dec 18 2011 18:12:03
Библиотека кодирования : libebml v1.2.3 + libmatroska v1.3.0

Видео
Идентификатор : 1
Формат : AVC
Формат/Информация : Advanced Video Codec
Профиль формата : High@L4.1
Параметр CABAC формата : Да
Параметр ReFrames формата : 13 кадров
Идентификатор кодека : V_MPEG4/ISO/AVC
Продолжительность : 1 ч. 33 м.
Битрейт : 4450 Кбит/сек
Ширина : 1012 пикселей
Высота : 430 пикселей
Соотношение сторон : 2,35:1
Режим частоты кадров : Постоянный
Частота кадров : 23,976 кадра/сек
Цветовое пространство : YUV
Субдискретизация насыщенности : 4:2:0
Битовая глубина : 8 бит
Тип развёртки : Прогрессивная
Бит/(Пиксели*Кадры) : 0.427
Размер потока : 2,91 Гбайт (83%)
Заголовок : Под прицелом / Silent Trigger (1996) BDRip-AVC by HQCLUB [Elheym]
Библиотека кодирования : x264 core 144 r2525kMod 40bb568
Настройки программы : cabac=1 / ref=13 / deblock=1:-3:-2 / analyse=0x3:0x133 / me=umh / subme=11 / psy=1 / fade_compensate=0.00 / psy_rd=0.95:0.00 / mixed_ref=1 / me_range=32 / chroma_me=1 / trellis=2 / 8x8dct=1 / cqm=0 / deadzone=21,11 / fast_pskip=0 / chroma_qp_offset=-4 / threads=6 / lookahead_threads=1 / sliced_threads=0 / nr=0 / decimate=1 / interlaced=0 / bluray_compat=0 / constrained_intra=0 / fgo=0 / bframes=15 / b_pyramid=2 / b_adapt=2 / b_bias=0 / direct=1 / weightb=1 / open_gop=0 / weightp=2 / keyint=230 / keyint_min=23 / scenecut=40 / intra_refresh=0 / rc_lookahead=40 / rc=crf / mbtree=0 / crf=18.7000 / qcomp=0.70 / qpmin=0 / qpmax=69 / qpstep=4 / vbv_maxrate=50000 / vbv_bufsize=62500 / crf_max=0.0 / nal_hrd=none / filler=0 / ip_ratio=1.40 / pb_ratio=1.30 / aq=2:0.90 / zones=129809,134809,b=0.26
Язык : English
Default : Да
Forced : Нет

Аудио #1
Идентификатор : 2
Формат : AC-3
Формат/Информация : Audio Coding 3
Расширение режима : CM (complete main)
Параметр Endianness формата : Big
Идентификатор кодека : A_AC3
Продолжительность : 1 ч. 33 м.
Вид битрейта : Постоянный
Битрейт : 192 Кбит/сек
Каналы : 2 канала
Расположение каналов : Front: L R
Частота : 48,0 КГц
Битовая глубина : 16 бит
Метод сжатия : С потерями
Размер потока : 129 Мбайт (4%)
Заголовок : АС3 2.0 @ 192 kbps - DVO
Язык : Russian
Default : Нет
Forced : Нет

Аудио #2
Идентификатор : 3
Формат : AC-3
Формат/Информация : Audio Coding 3
Расширение режима : CM (complete main)
Параметр Endianness формата : Big
Идентификатор кодека : A_AC3
Продолжительность : 1 ч. 33 м.
Вид битрейта : Постоянный
Битрейт : 192 Кбит/сек
Каналы : 2 канала
Расположение каналов : Front: L R
Частота : 48,0 КГц
Битовая глубина : 16 бит
Метод сжатия : С потерями
Размер потока : 129 Мбайт (4%)
Заголовок : АС3 2.0 @ 192 kbps - DVO, RTR
Язык : Russian
Default : Нет
Forced : Нет

Аудио #3
Идентификатор : 4
Формат : AC-3
Формат/Информация : Audio Coding 3
Расширение режима : CM (complete main)
Параметр Endianness формата : Big
Идентификатор кодека : A_AC3
Продолжительность : 1 ч. 33 м.
Вид битрейта : Постоянный
Битрейт : 448 Кбит/сек
Каналы : 6 каналов
Расположение каналов : Front: L C R, Side: L R, LFE
Частота : 48,0 КГц
Битовая глубина : 16 бит
Метод сжатия : С потерями
Размер потока : 300 Мбайт (8%)
Заголовок : АС3 5.1 @ 448 kbps - Original
Язык : English
Default : Нет
Forced : Нет

Текст #1
Идентификатор : 5
Формат : UTF-8
Идентификатор кодека : S_TEXT/UTF8
Идентификатор кодека/Информация : UTF-8 Plain Text
Заголовок : Full
Язык : Russian
Default : Нет
Forced : Нет

Текст #2
Идентификатор : 6
Формат : UTF-8
Идентификатор кодека : S_TEXT/UTF8
Идентификатор кодека/Информация : UTF-8 Plain Text
Заголовок : Full v.1
Язык : English
Default : Нет
Forced : Нет

Текст #3
Идентификатор : 7
Формат : UTF-8
Идентификатор кодека : S_TEXT/UTF8
Идентификатор кодека/Информация : UTF-8 Plain Text
Заголовок : Full v.2
Язык : English
Default : Нет
Forced : Нет

Текст #4
Идентификатор : 8
Формат : UTF-8
Идентификатор кодека : S_TEXT/UTF8
Идентификатор кодека/Информация : UTF-8 Plain Text
Заголовок : Full SDH
Язык : English
Default : Нет
Forced : Нет

Меню
00:00:00.000 : :Chapter 01
00:10:55.446 : :Chapter 02
00:27:06.124 : :Chapter 03
00:38:09.495 : :Chapter 04
00:50:39.286 : :Chapter 05
01:01:01.824 : :Chapter 06
01:13:00.167 : :Chapter 07
01:30:20.623 : :Chapter 08
01:33:42.658 : :Chapter 09

x264 [info]: frame I:1053 Avg QP:18.09 size: 69292
x264 [info]: frame P:25705 Avg QP:19.78 size: 40518
x264 [info]: frame B:108052 Avg QP:21.70 size: 19312

x264 [info]: consecutive B-frames: 1.8% 1.6% 4.8% 16.0% 14.0% 34.7% 8.5% 5.0% 3.4% 3.4% 2.0% 1.6% 1.1% 1.4% 0.5% 0.4%

x264 [info]: ref P L0: 39.1% 10.3% 18.9% 7.7% 6.3% 4.2% 3.8% 2.0% 2.0% 1.5% 1.5% 1.2% 1.2% 0.2% 0.0%
x264 [info]: ref B L0: 61.2% 15.0% 8.1% 4.4% 3.1% 2.5% 1.9% 1.2% 1.0% 0.9% 0.5% 0.2%
x264 [info]: ref B L1: 89.7% 10.3%



Скачать Под.прицелом.Silent.Trigger.(Рассел.Малкэй).[1996.боевик.триллер.драма.BDRip-AVC].[DVO]x2+[AVO]x4+[Оригинал]+[Sub]x2.torrent без регистрации
Золото ЗОЛОТАЯ РАЗДАЧА! СКАЧАННОЕ НЕ ЗАСЧИТЫВАЕТСЯ! Золото
Дата: Зарегистрирован   [ Тип: внутренний ] Как тут cкачать?
MAGNET ссылка
MAGNET ссылка


Скачать .torrent

18 KB

Статус: проверено DHT
Скачан: торрент - 128 раз, раздача полностью - 1 раз
Размер: 3,53 GB
Оценка:  - (Голосов: 0)
Поблагодарили: 1
Поделиться ссылкой на эту раздачу с друзьями:
В контактеFacebookОдноклассникиTwitterLivejournalМой МирLiveinternet
 

 
Показать сообщения:    


Вы не можете начинать темы
Вы не можете отвечать на сообщения
Вы не можете редактировать свои сообщения
Вы не можете удалять свои сообщения
Вы не можете голосовать в опросах
Вы не можете прикреплять файлы к сообщениям
Вы можете скачивать файлы