Loading...
Error

Скачать Молчи в тряпочку / Keeping Mum (Ниал Джонсон) [2005, комедия, криминал, BDRip-AVC] [MVO]+[Sub]x2 торрент без регистрации

 
Статистика раздачи
Размер:  1,45 GB   |    Скачан:  136 раз
Сидов:  1  [  0 KB/s  ]  
 
Автор Сообщение

Marsianka

[] 

Молчи в тряпочку / Keeping Mum (2005) BDRip-AVC

Информация о фильме
Название: Молчи в тряпочку
Оригинальное название: Keeping Mum
Год выхода: 2005
Жанр: комедия, криминал
Режиссер: Ниал Джонсон
В ролях: Роуэн Эткинсон, Кристин Скотт Томас, Мэгги Смит, Патрик Суэйзи, Тэмсин Эгертон, Тоби Паркес, Лиз Смит, Эмилия Фокс, Джеймс Бут, Патрик Монктон

О фильме:
Уолтер Гудфеллоу, приходской священник в маленькой английской деревушке Литтл Уэллоп, давно запустил свой брак с Глорией, и вообще так отдалился от своей семьи, что даже внимания не обращает ни на семнадцатилетнюю дочь, которая вовсю встречается с разными неподходящими ей парнями, ни на сына Пити, который боится ходить в школу, потому что его там обижают.

А лишенная любви мужа Глория начинает влюбляться в американца Лэнса, профессионального гольфиста, дающего ей частные уроки. Однако семейные проблемы потихоньку исчезают, когда в доме появляется новая домохозяйка Грэйс Хокинс, которая справляется с трудностями словно куда более старая, мрачная и таинственная Мэри Поппинс…



Страна: Великобритания
Продолжительность: 01:43:07
Перевод: Многоголосый закадровый [R5]

Файл
Кодек: h.264
Качество: BDRip-AVC
Видео: 1024x436 (2,35:1), 23.976 fps, 1626 kbps, 0.152 bit/pixel
Звук: 48 kHz, AC3 5.1, 384.00 kbps
Субтитры: Русские, Английские - вшитые отключаемые

Общее
Уникальный идентификатор : 177500404817256889315552436609502671455 (0x858955A056FCF022BD3458A2D7FFF25F)
Полное имя : D:Keeping Mum.2005.BDRip-AVC.mkv
Формат : Matroska
Версия формата : Version 2
Размер файла : 1,45 Гбайт
Продолжительность : 1 ч. 43 м.
Общий поток : 2011 Кбит/сек
Название фильма : Молчи в тряпочку / Keeping Mum (2005) BDRip-AVC rip by Rulya74
Дата кодирования : UTC 2012-08-28 03:33:15
Программа кодирования : mkvmerge v5.7.0 ('The Whirlwind') built on Jul 8 2012 20:08:51
Библиотека кодирования : libebml v1.2.3 + libmatroska v1.3.0

Видео
Идентификатор : 1
Формат : AVC
Формат/Информация : Advanced Video Codec
Профиль формата : High@L4.1
Параметр CABAC формата : Да
Параметр ReFrames формата : 7 кадров
Идентификатор кодека : V_MPEG4/ISO/AVC
Продолжительность : 1 ч. 43 м.
Битрейт : 1626 Кбит/сек
Ширина : 1024 пикселя
Высота : 436 пикселей
Соотношение сторон : 2,35:1
Частота кадров : 23,976 кадра/сек
Цветовое пространство : YUV
Субдискретизация насыщенности : 4:2:0
Битовая глубина : 8 бит
Тип развёртки : Прогрессивная
Бит/(Пиксели*Кадры) : 0.152
Размер потока : 1,14 Гбайт (79%)
Библиотека кодирования : x264 core 125 r2208 d9d2288
Настройки программы : cabac=1 / ref=7 / deblock=1:-1:-1 / analyse=0x3:0x133 / me=umh / subme=10 / psy=1 / psy_rd=1.00:0.10 / mixed_ref=1 / me_range=32 / chroma_me=1 / trellis=2 / 8x8dct=1 / cqm=0 / deadzone=21,11 / fast_pskip=0 / chroma_qp_offset=-3 / threads=14 / lookahead_threads=2 / sliced_threads=0 / nr=0 / decimate=1 / interlaced=0 / bluray_compat=0 / constrained_intra=0 / bframes=6 / b_pyramid=2 / b_adapt=2 / b_bias=0 / direct=3 / weightb=1 / open_gop=0 / weightp=2 / keyint=240 / keyint_min=22 / scenecut=40 / intra_refresh=0 / rc=2pass / mbtree=0 / bitrate=1626 / ratetol=1.0 / qcomp=0.60 / qpmin=10 / qpmax=51 / qpstep=4 / cplxblur=20.0 / qblur=0.5 / ip_ratio=1.40 / pb_ratio=1.30 / aq=1:1.00
Default : Да
Forced : Нет

Аудио
Идентификатор : 2
Формат : AC-3
Формат/Информация : Audio Coding 3
Расширение режима : CM (complete main)
Идентификатор кодека : A_AC3
Продолжительность : 1 ч. 43 м.
Вид битрейта : Постоянный
Битрейт : 384 Кбит/сек
Каналы : 6 каналов
Расположение каналов : Front: L C R, Side: L R, LFE
Частота : 48,0 КГц
Битовая глубина : 16 бит
Метод сжатия : С потерями
Размер потока : 283 Мбайт (19%)
Заголовок : Многоголосый закадровый [R5]
Язык : Russian
Default : Да
Forced : Нет

Текст #1
Идентификатор : 3
Формат : UTF-8
Идентификатор кодека : S_TEXT/UTF8
Идентификатор кодека/Информация : UTF-8 Plain Text
Язык : Russian
Default : Да
Forced : Нет

Текст #2
Идентификатор : 4
Формат : UTF-8
Идентификатор кодека : S_TEXT/UTF8
Идентификатор кодека/Информация : UTF-8 Plain Text
Язык : English
Default : Нет
Forced : Нет

Меню
00:00:22.000 : en:Opening Sequence
00:06:32.000 : en:Want Sleep
00:13:27.068 : en:Your Dog
00:20:58.700 : en:It's Perfect
00:26:20.000 : en:Start Listening
00:32:52.768 : en:Bad Luck
00:38:22.968 : en:When I Met Walter
00:48:22.835 : en:Afternoon Walk
00:55:31.868 : en:Pictures
01:02:32.536 : en:Sex in the Bible
01:12:01.970 : en:Have a Nice Life
01:18:27.470 : en:Little Chat
01:26:04.538 : en:Down Fall
01:31:05.305 : en:Hello Everyone
01:37:13.873 : en:The Pond
01:39:05.573 : en:End Credits



Скачать Молчи.в.тряпочку.Keeping.Mum.(Ниал.Джонсон).[2005.комедия.криминал.BDRip-AVC].[MVO]+[Sub]x2.torrent без регистрации
Золото ЗОЛОТАЯ РАЗДАЧА! СКАЧАННОЕ НЕ ЗАСЧИТЫВАЕТСЯ! Золото
Дата: Зарегистрирован   [ Тип: внутренний ] Как тут cкачать?
MAGNET ссылка
MAGNET ссылка


Скачать .torrent

15 KB

Статус: проверено DHT
Скачан: торрент - 136 раз, раздача полностью - 50 раз
Размер: 1,45 GB
Оценка:  - (Голосов: 0)
Поблагодарили: 2
Поделиться ссылкой на эту раздачу с друзьями:
В контактеFacebookОдноклассникиTwitterLivejournalМой МирLiveinternet
 

 
Показать сообщения:    


Вы не можете начинать темы
Вы не можете отвечать на сообщения
Вы не можете редактировать свои сообщения
Вы не можете удалять свои сообщения
Вы не можете голосовать в опросах
Вы не можете прикреплять файлы к сообщениям
Вы можете скачивать файлы