Loading...
Error

Скачать 2001 маньяк / 2001 Maniacs (Тим Салливан) [2005, ужасы, комедия, BDRip-AVC] [Dub]+[AVO]+[Sub]x2 торрент без регистрации

 
Статистика раздачи
Размер:  2,75 GB   |    Скачан:  152 раза
Сидов:  1  [  0 KB/s  ]  
 
Автор Сообщение

Marsianka

[] 

Информация о фильме
Название: 2001 маньяк
Оригинальное название: 2001 Maniacs
Год выхода: 2005
Жанр: ужасы, комедия
Режиссер: Тим Салливан
В ролях: Роберт Инглунд, Лин Шэй, Джузеппе Эндрюс, Джей Гиллеспи, Марла Малкольм, Дилан Эдрингтон, Мэттью Кэри, Петер Стормаре, Джина Мари Хикин, Брайан Гросс, Масхонд Ли, Бьянка Смит, Брендан МакКарти, Адам Робител, Криста Кэмпбелл, Венди Кремер, Кристин Мишель, Коди Китчен, Райан Флеминг, Джонни Ледженд, Скотт Спигел, Элай Рот, Крэйг Старк, Трэвис Тритт, Хью Кэйси, Билл МакКинни, Айзек С. Синглтон мл., Кевин 'Пондо' Кэнади, Кэйн Ходдер, Энди Мантинео, Джейкоб Хэйр, Тим Салливан

О фильме: Две группы студентов отправляются во время каникул на пляжи Флориды. И случайно оказываются в небольшом гостеприимном городке Чудная Долина, в котором его жители и мэр Бакман готовят грандиозный праздник. Веселье, угощения и разнообразные запретные удовольствия убеждают гостей остаться на всю ночь. Чтобы чуть позже стать участниками главного сюрприза!....



Страна: США
Студия: BloodWorks, Raw Nerve, Velvet Steamroller Entertainment
Продолжительность: 01:27:46
Перевод: Дублированный, авторский одноголосый (Гранкин)

Файл
Кодек: MPEG-4 AVC
Качество: BDRip-AVC
Видео: 3400 Кбит/с, 1024x576, 23.976 кадр/с

Семпл
Аудио #1: Русский (AC3, 6 ch, 448 Кбит/с) / Дублированный
Аудио #2: Русский (AC3, 2 ch, 192 Кбит/с) / Авторский одноголосый (Гранкин)
Аудио #3: Английский (AC3, 6 ch, 448 Кбит/с)
Субтитры: Русские, английские
Общее
Уникальный идентификатор : 233234749342486350805651699592548536719 (0xAF7760F7ECC9BA77B636D4562C53518F)
Полное имя : D:Мои Рипы2001.Maniacs.2005.x264.BDRip.AVC.MediaClub.mkv
Формат : Matroska
Версия формата : Version 4 / Version 2
Размер файла : 2,75 Гбайт
Продолжительность : 1 ч. 27 м.
Общий поток : 4485 Кбит/сек
Название фильма : = MediaClub = rip by krakatuq
Дата кодирования : UTC 2015-01-22 14:23:05
Программа кодирования : mkvmerge v6.6.0 ('The Edge Of The In Between') built on Dec 1 2013 17:55:00
Библиотека кодирования : libebml v1.3.0 + libmatroska v1.4.1

Видео
Идентификатор : 1
Формат : AVC
Формат/Информация : Advanced Video Codec
Профиль формата : High@L4.1
Параметр CABAC формата : Да
Параметр ReFrames формата : 9 кадров
Идентификатор кодека : V_MPEG4/ISO/AVC
Продолжительность : 1 ч. 27 м.
Битрейт : 3400 Кбит/сек
Ширина : 1024 пикселя
Высота : 576 пикселей
Соотношение сторон : 16:9
Режим частоты кадров : Постоянный
Частота кадров : 23,976 кадра/сек
Цветовое пространство : YUV
Субдискретизация насыщенности : 4:2:0
Битовая глубина : 8 бит
Тип развёртки : Прогрессивная
Бит/(Пиксели*Кадры) : 0.240
Размер потока : 2,03 Гбайт (74%)
Заголовок : 2001.Maniacs.2005.x264.BDRip.AVC.MediaClub
Библиотека кодирования : x264 core 142 r2409+42 04be48a tMod [8-bit@4:2:0 X86]
Настройки программы : cabac=1 / ref=9 / deblock=1:-3:-3 / analyse=0x3:0x133 / me=umh / subme=11 / psy=1 / fade_compensate=0.00 / psy_rd=1.00:0.25 / mixed_ref=1 / me_range=32 / chroma_me=1 / trellis=2 / 8x8dct=1 / cqm=0 / deadzone=21,11 / fast_pskip=0 / chroma_qp_offset=-4 / threads=3 / lookahead_threads=1 / sliced_threads=0 / nr=0 / decimate=0 / interlaced=0 / bluray_compat=0 / constrained_intra=0 / fgo=0 / bframes=8 / b_pyramid=2 / b_adapt=2 / b_bias=0 / direct=3 / weightb=1 / open_gop=0 / weightp=2 / keyint=240 / keyint_min=23 / scenecut=40 / intra_refresh=0 / rc=2pass / mbtree=0 / bitrate=3400 / ratetol=1.0 / qcomp=0.60 / qpmin=0:0:0 / qpmax=69:69:69 / qpstep=4 / cplxblur=20.0 / qblur=0.5 / ip_ratio=1.40 / pb_ratio=1.30 / aq=1:1.00 / aq-sensitivity=10.00 / aq-factor=1.00:1.00:1.00 / aq2=0 / aq3=0
Язык : English
Default : Да
Forced : Нет

Аудио #1
Идентификатор : 2
Формат : AC-3
Формат/Информация : Audio Coding 3
Расширение режима : CM (complete main)
Параметр Endianness формата : Big
Идентификатор кодека : A_AC3
Продолжительность : 1 ч. 27 м.
Вид битрейта : Постоянный
Битрейт : 448 Кбит/сек
Каналы : 6 каналов
Расположение каналов : Front: L C R, Side: L R, LFE
Частота : 48,0 КГц
Битовая глубина : 16 бит
Метод сжатия : С потерями
Размер потока : 281 Мбайт (10%)
Заголовок : TRACK_01_DUB_RUS
Язык : Russian
Default : Да
Forced : Да

Аудио #2
Идентификатор : 3
Формат : AC-3
Формат/Информация : Audio Coding 3
Расширение режима : CM (complete main)
Параметр Endianness формата : Big
Идентификатор кодека : A_AC3
Продолжительность : 1 ч. 27 м.
Вид битрейта : Постоянный
Битрейт : 192 Кбит/сек
Каналы : 2 канала
Расположение каналов : Front: L R
Частота : 48,0 КГц
Битовая глубина : 16 бит
Метод сжатия : С потерями
Размер потока : 121 Мбайт (4%)
Заголовок : TRACK_02_AVO_RUS_GRANKIN
Язык : Russian
Default : Нет
Forced : Нет

Аудио #3
Идентификатор : 4
Формат : AC-3
Формат/Информация : Audio Coding 3
Расширение режима : CM (complete main)
Параметр Endianness формата : Big
Идентификатор кодека : A_AC3
Продолжительность : 1 ч. 27 м.
Вид битрейта : Постоянный
Битрейт : 448 Кбит/сек
Каналы : 6 каналов
Расположение каналов : Front: L C R, Side: L R, LFE
Частота : 48,0 КГц
Битовая глубина : 16 бит
Метод сжатия : С потерями
Размер потока : 281 Мбайт (10%)
Заголовок : TRACK_03_ORIGINAL_ENG
Язык : English
Default : Нет
Forced : Нет

Текст #1
Идентификатор : 5
Формат : UTF-8
Идентификатор кодека : S_TEXT/UTF8
Идентификатор кодека/Информация : UTF-8 Plain Text
Заголовок : TEXT_01_SUB_RUS
Язык : Russian
Default : Нет
Forced : Нет

Текст #2
Идентификатор : 6
Формат : UTF-8
Идентификатор кодека : S_TEXT/UTF8
Идентификатор кодека/Информация : UTF-8 Plain Text
Заголовок : TEXT_02_SUB_ENG
Язык : English
Default : Нет
Forced : Нет

Меню
00:00:00.000 : en:00:00:00.000
00:06:05.949 : en:00:06:05.949
00:10:59.993 : en:00:10:59.993
00:19:50.981 : en:00:19:50.981
00:27:08.961 : en:00:27:08.961
00:32:53.013 : en:00:32:53.013
00:45:01.949 : en:00:45:01.949
00:50:08.964 : en:00:50:08.964
00:55:45.968 : en:00:55:45.968
01:02:23.949 : en:01:02:23.949
01:19:13.874 : en:01:19:13.874
01:24:22.933 : en:01:24:22.933

x264 log
x264 [info]: frame I:1236 Avg QP:19.46 size:109991
x264 [info]: frame P:31896 Avg QP:22.28 size: 32411
x264 [info]: frame B:93129 Avg QP:24.80 size: 11431
Релиз от: | Автор рипа:



Скачать 2001.маньяк.2001.Maniacs.(Тим.Салливан).[2005.ужасы.комедия.BDRip-AVC].[Dub]+[AVO]+[Sub]x2.torrent без регистрации
Золото ЗОЛОТАЯ РАЗДАЧА! СКАЧАННОЕ НЕ ЗАСЧИТЫВАЕТСЯ! Золото
Дата: Зарегистрирован   [ Тип: внутренний ] Как тут cкачать?
MAGNET ссылка
MAGNET ссылка


Скачать .torrent

14 KB

Статус: проверено DHT
Скачан: торрент - 152 раз, раздача полностью - 1 раз
Размер: 2,75 GB
Оценка:  - (Голосов: 0)
Поблагодарили: 2
Поделиться ссылкой на эту раздачу с друзьями:
В контактеFacebookОдноклассникиTwitterLivejournalМой МирLiveinternet
 

 
Показать сообщения:    


Вы не можете начинать темы
Вы не можете отвечать на сообщения
Вы не можете редактировать свои сообщения
Вы не можете удалять свои сообщения
Вы не можете голосовать в опросах
Вы не можете прикреплять файлы к сообщениям
Вы можете скачивать файлы