Loading...
Error

Скачать Страшные сказки / Penny Dreadful (Полный 1-ый сезон) (Хуан Антонио Байона, Коки Гидройч, Джеймс Хоуз) [2014, Ужасы, триллер, BDRemux] [1080p] [MVO] (AlexFilm) торрент без регистрации

 
Статистика раздачи
Размер:  104,26 GB   |    Скачан:  2266 раз

Полного источника не было: 27 минут

 
Автор Сообщение

leon030982

[] 



Страшные Сказки


Информация о фильме:
Год выхода: 2014
Страна: США, Ирландия, Великобритания
Жанр: ужасы, драма
Продолжительность: ~ 00:55:00 серия
Перевод: Профессиональный (многоголосый, закадровый) - AlexFilm
Субтитры: отсутствуют

Режиссер: Хуан Антонио Байона, Коки Гидройч, Джеймс Хоуз
В ролях: Тимоти Далтон, Ева Грин, Джош Хартнетт, Рори Киннер, Хелен МакКрори, Билли Пайпер, Гарри Тредэвэй, Рив Карни, Алан Армстронг, Рик Берн

Описание фильма:
Сериал возвращает нас ко всеми любимым героям, монстрам и злодеям. В викторианском Лондоне, где происходит действие сериала, никогда не было спокойно и безопасно. Особенно теперь, когда литературные персонажи ожили и наводят ужас на город. Неминуема встреча с вечно молодым Дорианом Греем, героем одноименного романа Оскара Уайльда, доктором Франкенштейном и его зомби-монстром, хладнокровным графом Дракулой, охотником на вампиров и оборотней Ван Хельсингом и множеством других уникальных персонажей.



Информация о файле:
Качество: BDRemux 1080p
Формат: BDAV
Видео кодек:AVC
Аудио кодек: TrueHD
Видео: 1920x1080 (16:9), 23.976 fps, ~30 Mbps
Аудио Rus: Dolby TrueHD / 5.1 / 48 kHz / 1590 kbps / 16-bit (AC3 Embedded: 5.1 / 48 kHz / 640 kbps)
Аудио Eng: Dolby TrueHD / 5.1 / 48 kHz / 1553 kbps / 16-bit (AC3 Embedded: 5.1 / 48 kHz / 640 kbps)

Релиз

Цитата:

Перевод: Doctor Joker и MartinaG
Монтаж и сведение звука: Сергей Мартынов
Роли озвучивали:
Татьяна Манетина
Владимир Курдов
Михаил Суслов
Сергей Пономарёв

Код:

Format : BDAV
Format/Info : Blu-ray Video
File size : 13.9 GiB
Duration : 53mn 1s
Overall bit rate mode : Variable
Overall bit rate : 37.6 Mbps
Maximum Overall bit rate : 35.5 Mbps

Video
ID : 4113 (0x1011)
Menu ID : 1 (0x1)
Format : AVC
Format/Info : Advanced Video Codec
Format profile : High@L4.1
Format settings, CABAC : Yes
Format settings, ReFrames : 2 frames
Codec ID : 27
Duration : 53mn 1s
Bit rate mode : Variable
Bit rate : 34.8 Mbps
Width : 1 920 pixels
Height : 1 080 pixels
Display aspect ratio : 16:9
Frame rate : 23.976 fps
Color space : YUV
Chroma subsampling : 4:2:0
Bit depth : 8 bits
Scan type : Progressive
Bits/(Pixel*Frame) : 0.701
Stream size : 12.9 GiB (93%)

Audio #1
ID : 4352 (0x1100)
Menu ID : 1 (0x1)
Format : TrueHD / AC-3
Mode extension : CM (complete main)
Format settings, Endianness : Big
Muxing mode : Stream extension
Codec ID : 131
Duration : 53mn 1s
Bit rate mode : Variable / Constant
Bit rate : 640 Kbps
Maximum bit rate : 2 715 Kbps
Channel(s) : 6 channels
Channel positions : Front: L C R, Side: L R, LFE
Sampling rate : 48.0 KHz
Bit depth : 16 bits
Stream size : 243 MiB (2%)

Audio #2
ID : 4353 (0x1101)
Menu ID : 1 (0x1)
Format : TrueHD / AC-3
Mode extension : CM (complete main)
Format settings, Endianness : Big
Muxing mode : Stream extension
Codec ID : 131
Duration : 53mn 1s
Bit rate mode : Variable / Constant
Bit rate : 640 Kbps
Maximum bit rate : 2 709 Kbps
Channel(s) : 6 channels
Channel positions : Front: L C R, Side: L R, LFE
Sampling rate : 48.0 KHz
Bit depth : 16 bits
Stream size : 243 MiB (2%)

Text #1
ID : 4608 (0x1200)
Menu ID : 1 (0x1)
Format : PGS
Codec ID : 144

Text #2
ID : 4609 (0x1201)
Menu ID : 1 (0x1)
Format : PGS
Codec ID : 144






Скачать Страшные.сказки.Penny.Dreadful.(Полный.1-ый.сезон).(Хуан.Антонио.Байона.Коки.Гидройч.Джеймс.Хоуз).[2014.Ужасы.триллер.BDRemux].[1080p].[MVO].(AlexFilm).torrent без регистрации
Золото ЗОЛОТАЯ РАЗДАЧА! СКАЧАННОЕ НЕ ЗАСЧИТЫВАЕТСЯ! Золото
Дата: Зарегистрирован   [ Тип: внутренний ] Как тут cкачать?
MAGNET ссылка
MAGNET ссылка


Скачать .torrent

529 KB

Статус: проверено DHT
Скачан: торрент - 2266 раз, раздача полностью - 13 раз
Размер: 104,26 GB
Оценка:  5 (Голосов: 1)
Поблагодарили: 2
Поделиться ссылкой на эту раздачу с друзьями:
В контактеFacebookОдноклассникиTwitterLivejournalМой МирLiveinternet
 

 
Показать сообщения:    


Вы не можете начинать темы
Вы не можете отвечать на сообщения
Вы не можете редактировать свои сообщения
Вы не можете удалять свои сообщения
Вы не можете голосовать в опросах
Вы не можете прикреплять файлы к сообщениям
Вы можете скачивать файлы